<svg xmlns="http://www.w3.org/2000/svg">
<defs>
<font horiz-adv-x="535" id="92c941ea-2b06-4b72-9165-17476d424d6c">
<font-face font-family="" panose-1="2 11 3 3 2 2 2 2 2 4" ascent="979" descent="-250" units-per-em="1000" alphabetic="0">
</font-face>
<missing-glyph horiz-adv-x="0" />

<glyph unicode="&#xA;" />
<glyph unicode="&#xD;" horiz-adv-x="0" />
<glyph unicode=" " horiz-adv-x="278" />
<glyph unicode="!" horiz-adv-x="333" d="M130 496V720H203V496L189 181H144L130 496ZM130 0V88H203V0H130Z"  />
<glyph unicode="&quot;" horiz-adv-x="278" d="M57 720H109V494H57V720ZM168 720H220V494H168V720Z"  />
<glyph unicode="#" horiz-adv-x="556" d="M504 228H393L361 0H302L333 228H196L162 0H103L137 228H27V287H146L167 427H55V486H175L207 698H267L235 486H371L402 698H461L430 486H530V427H422L402 287H504V228ZM227 427L205 287H343L363 427H227Z"  />
<glyph unicode="$" horiz-adv-x="556" d="M302 -95H256V-19Q171 -14 116 28T42 154Q40 167 39 179T37 203H102Q102 169 113 140T144 88T193 51T255 35V332Q214 342 178 355T114 390T72 444T56 523Q56 565 72 599T115 657T179 693T256 705V766H302V705Q343 705 378 694T439 660T480 604T497 529H432Q432 556 422 578T394 617T353 642T302 651V385Q351 373 391 359T459 322T502 263T518 169Q518 125 499 91T450 32T380 -5T302 -19V-95ZM302 35Q333 35 360 46T409 76T442 121T454 180Q454 217 442 241T410 281T362 306T302 322V35ZM255 651Q227 651 203 642T160 617T131 577T120 526Q120 493 130 471T159 435T202 411T255 394V651Z"  />
<glyph unicode="%" horiz-adv-x="889" d="M398 532Q398 498 385 468T350 416T297 380T232 367Q198 367 168 380T116 415T80 468T67 532Q67 566 80 596T115 648T168 684T232 698Q266 698 296 685T349 650T385 597T398 532ZM658 331Q692 331 722 318T774 283T808 230T821 166Q821 132 809 102T774 49T722 13T658 0Q624 0 594 13T541 48T505 101T492 166Q492 200 505 230T541 282T594 318T658 331ZM271 -14H219L616 705H668L271 -14ZM232 424Q254 424 273 432T308 456T332 490T341 532Q341 554 333 573T309 608T274 632T232 641Q210 641 191 633T156 609T133 574T124 532Q124 510 132 491T156 456T190 433T232 424ZM657 274Q634 274 615 265T581 241T558 206T549 164Q549 143 558 124T582 89T616 66T657 57Q679 57 698 66T732 90T755 124T764 166Q764 188 756 207T733 242T699 265T657 274Z"  />
<glyph unicode="&amp;" horiz-adv-x="667" d="M488 186Q507 218 512 253T518 326H577Q575 277 565 229T527 138L644 0H563L493 85Q446 29 392 5T266 -19Q219 -19 178 -4T107 40T59 107T41 195Q41 235 55 269T92 331T147 380T213 418Q184 452 160 491T136 579Q136 613 149 639T184 684T235 711T298 720Q331 720 359 709T407 679T438 635T449 581Q449 545 438 519T407 472T361 434T307 400L488 186ZM249 375Q219 361 194 342T150 298T120 247T109 190Q109 154 121 126T155 77T206 46T271 35Q329 35 373 61T454 131L249 375ZM378 540Q387 560 386 582T373 623T341 654T293 666Q274 666 257 660T227 643T205 616T197 580Q197 564 205 545T224 508T249 474T272 445Q302 463 332 484T378 540Z"  />
<glyph unicode="&apos;" horiz-adv-x="222" d="M85 720H137V494H85V720Z"  />
<glyph unicode="(" horiz-adv-x="333" d="M277 739Q205 635 165 517T124 271Q124 146 166 29T277 -191H226Q185 -134 153 -81T99 28T66 144T55 276Q55 345 66 405T100 522T153 631T226 739H277Z"  />
<glyph unicode=")" horiz-adv-x="333" d="M56 -191Q128 -87 168 31T209 277Q209 402 167 519T56 739H107Q148 682 180 629T233 520T266 404T278 272Q278 203 267 143T233 26T179 -83T107 -191H56Z"  />
<glyph unicode="*" horiz-adv-x="389" d="M173 603V720H215V603L329 645L344 601L230 564L305 458L266 434L192 542L114 436L79 463L156 564L44 604L62 646L173 603Z"  />
<glyph unicode="+" horiz-adv-x="660" d="M300 500H360V280H580V220H360V0H300V220H80V280H300V500Z"  />
<glyph unicode="&#x2c;" horiz-adv-x="278" d="M175 -30Q175 -74 155 -100T102 -137V-100Q114 -92 125 -78T136 -34V0H102V88H175V-30Z"  />
<glyph unicode="-" horiz-adv-x="333" d="M293 291V229H40V291H293Z"  />
<glyph unicode="." horiz-adv-x="278" d="M102 0V88H175V0H102Z"  />
<glyph unicode="/" horiz-adv-x="278" d="M53 -90H-3L232 739H288L53 -90Z"  />
<glyph unicode="0" horiz-adv-x="556" d="M278 705Q330 705 368 690T432 647T475 584T501 508T513 424T516 340Q516 270 506 206T470 93T397 15T278 -14Q205 -14 159 15T86 93T49 208T39 347Q39 414 48 478T82 592T155 674T278 705ZM452 347Q452 404 446 458T420 556T367 625T276 651Q223 651 190 625T137 554T111 454T103 340Q103 272 111 217T140 122T193 62T278 40Q335 40 369 68T422 140T446 239T452 347Z"  />
<glyph unicode="1" horiz-adv-x="556" d="M302 524H120V566Q160 569 192 574T249 593T290 633T315 705H366V0H302V524Z"  />
<glyph unicode="2" horiz-adv-x="556" d="M69 474Q69 526 85 568T131 641T203 688T298 705Q351 705 391 690T459 648T501 586T515 510Q515 463 500 427T459 363T401 313T334 272T267 234T208 196Q191 183 175 169T146 137T125 100T116 54H509V0H48Q49 51 59 92T103 172Q140 214 179 244T257 297T329 340T389 383T430 435T445 506Q445 540 433 567T400 613T351 641T290 651Q255 651 227 637T178 598T146 542T137 474H69Z"  />
<glyph unicode="3" horiz-adv-x="556" d="M221 392Q266 392 303 397T366 418T408 460T423 527Q423 560 411 583T379 622T331 644T273 651Q239 651 212 640T164 609T133 561T122 500H58Q58 548 74 586T126 658Q159 688 200 696T286 705Q328 705 364 695T428 663T471 608T487 531Q487 476 463 436T387 374Q425 362 449 343T488 300T507 250T512 200Q512 156 497 118T453 51T382 5T285 -14Q224 -14 179 -3T104 33T57 100T34 204H98Q98 123 146 82T273 40Q311 40 344 53T400 88T436 139T448 199Q446 242 428 270T380 315T308 337T221 340V392Z"  />
<glyph unicode="4" horiz-adv-x="556" d="M358 174H36V229L364 698H422V228H520V174H422V0H358V174ZM99 228H358V602L99 228Z"  />
<glyph unicode="5" horiz-adv-x="556" d="M99 183Q109 111 156 76T273 40Q312 40 343 54T397 92T430 149T442 220Q442 259 430 292T395 349T340 386T267 399Q219 399 181 382T114 326L61 333L118 698H468V644H172L128 407Q149 420 166 429T202 443T239 451T283 453Q331 453 372 437T443 391T489 318T506 220Q506 164 488 121T438 47T367 2T283 -14Q233 -14 190 -4T113 29T60 90T35 183H99Z"  />
<glyph unicode="6" horiz-adv-x="556" d="M437 532Q426 586 393 618T303 651Q238 651 201 620T143 542T116 438T105 332Q120 352 136 372T174 407T223 432T290 442Q397 442 455 382T514 215Q514 108 455 47T288 -14Q235 -14 190 3T112 61T60 165T41 323Q41 386 52 453T91 577T169 669T297 705Q381 705 437 661T503 532H437ZM288 388Q251 388 222 374T172 336T140 281T129 213Q129 183 137 153T165 97T215 56T289 40Q334 40 364 55T414 96T441 153T450 217Q450 299 411 343T288 388Z"  />
<glyph unicode="7" horiz-adv-x="556" d="M59 698H508V638Q432 552 379 462T292 286T242 126T222 0H152Q157 76 182 161T246 331T332 493T431 634H59V698Z"  />
<glyph unicode="8" horiz-adv-x="556" d="M167 379Q141 395 123 409T92 441T75 479T69 533Q69 569 85 601T128 656T191 693T270 705Q310 705 348 695T417 664T465 611T483 533Q483 478 461 439T387 375Q445 354 478 308T512 200Q512 148 495 108T445 41T366 0T264 -14Q226 -14 187 -1T116 38T64 103T44 194Q44 257 75 306T167 379ZM279 345Q242 345 211 336T157 309T121 262T108 194Q108 161 120 133T155 85T210 52T283 40Q318 40 348 51T400 84T435 134T448 198Q448 235 435 262T399 308T345 336T279 345ZM276 651Q246 651 220 643T175 619T144 579T133 524Q133 491 145 468T179 429T227 407T283 399Q312 399 337 406T380 431T408 474T419 538Q419 592 384 621T276 651Z"  />
<glyph unicode="9" horiz-adv-x="556" d="M118 155Q129 98 162 69T255 40Q318 40 355 71T413 149T441 250T451 353L449 355Q417 301 370 273T259 245Q209 245 169 261T101 307T57 379T41 472Q41 522 55 564T97 638T167 687T268 705Q339 705 386 677T462 601T503 488T515 349Q515 259 496 192T443 78T361 9T258 -14Q217 -14 181 -4T118 27T74 80T53 155H118ZM268 651Q187 649 146 601T105 470Q105 389 147 344T268 299Q305 299 334 313T384 351T415 406T426 474Q426 552 384 600T268 651Z"  />
<glyph unicode=":" horiz-adv-x="278" d="M102 0V88H175V0H102ZM102 404V492H175V404H102Z"  />
<glyph unicode=";" horiz-adv-x="278" d="M175 -30Q175 -74 155 -100T102 -137V-100Q114 -92 125 -78T136 -34V0H102V88H175V-30ZM102 404V492H175V404H102Z"  />
<glyph unicode="&lt;" horiz-adv-x="660" d="M580 58V-6L80 229V282L580 505V441L159 255L580 58Z"  />
<glyph unicode="=" horiz-adv-x="660" d="M580 318H80V378H580V318ZM580 124H80V184H580V124Z"  />
<glyph unicode="&gt;" horiz-adv-x="660" d="M580 229L80 -6V58L501 255L80 441V505L580 282V229Z"  />
<glyph unicode="?" horiz-adv-x="500" d="M216 182Q215 237 223 282T271 368Q293 391 317 413T361 457T394 504T408 556Q408 583 398 606T367 647T318 675T252 685Q215 685 186 672T138 636T108 583T99 516H38Q34 566 49 607T93 677T164 723T254 739Q305 739 345 726T414 688T457 628T472 551Q472 507 453 476T405 417T347 363T295 301Q278 275 276 244T274 182H216ZM210 0V88H283V0H210Z"  />
<glyph unicode="@" horiz-adv-x="800" d="M743 167Q719 123 684 89T607 30T516 -6T419 -19Q339 -19 270 11T149 93T69 214T40 363Q40 441 70 509T151 629T271 709T415 739Q487 739 550 716T659 650T733 550T760 423Q760 364 739 311T684 218T609 155T527 131Q501 131 476 143T441 183Q418 160 386 147T322 133Q290 133 264 145T220 177T193 225T183 283Q183 333 201 386T251 484T329 557T431 586Q466 586 497 569T543 520L558 566H625L524 264Q518 247 515 233T512 207T519 190T541 183Q572 183 601 206T652 264T687 343T700 426Q700 487 677 536T615 619T525 671T417 689Q348 689 290 663T189 591T124 485T100 356Q100 288 124 229T192 126T293 57T419 31Q458 31 495 40T567 66T631 109T684 167H743ZM337 196Q371 196 401 224T453 291T489 375T502 454Q502 483 483 505T433 527Q393 527 361 503T307 442T272 364T259 288Q259 252 279 224T337 196Z"  />
<glyph unicode="A" horiz-adv-x="667" d="M15 0L298 720H375L651 0H581L498 226H170L85 0H15ZM193 284H475L334 662L193 284Z"  />
<glyph unicode="B" horiz-adv-x="667" d="M81 0V720H341Q404 720 449 707T522 670T564 613T577 539Q577 501 567 474T541 428T505 399T462 384V382Q537 371 573 323T610 203Q610 147 593 108T544 45T470 11T375 0H81ZM149 58H322Q378 58 419 63T488 83T528 127T542 203Q542 248 527 275T484 318T417 338T330 344H149V58ZM149 402H321Q374 402 410 411T468 437T499 480T509 539Q509 573 498 596T463 634T401 655T306 662H149V402Z"  />
<glyph unicode="C" horiz-adv-x="722" d="M592 511Q571 603 514 642T365 681Q300 681 253 655T176 585T131 484T116 362Q116 302 128 244T170 141T248 67T371 39Q417 39 455 54T521 95T569 158T599 237H670Q658 185 635 139T575 57T484 2T358 -19Q275 -19 216 11T120 94T65 214T48 360Q48 463 73 535T144 652T250 718T383 739Q438 739 485 725T569 681T629 610T662 511H592Z"  />
<glyph unicode="D" horiz-adv-x="722" d="M81 0V720H327Q357 720 386 719T443 712T497 695T549 666Q585 640 608 603T644 524T663 440T669 361Q669 325 665 288T650 216T624 148T582 88Q557 60 528 43T466 17T398 4T327 0H81ZM149 58H312Q358 58 398 63T481 91Q517 109 540 140T576 207T595 284T601 361Q601 400 596 440T577 517T539 584T477 635Q445 652 401 657T312 662H149V58Z"  />
<glyph unicode="E" horiz-adv-x="611" d="M81 0V720H560V662H149V402H520V344H149V58H570V0H81Z"  />
<glyph unicode="F" horiz-adv-x="556" d="M74 0V720H538V662H142V402H502V344H142V0H74Z"  />
<glyph unicode="G" horiz-adv-x="778" d="M387 314V372H695V0H637V123Q618 91 594 65T537 20T463 -9T368 -19Q300 -19 242 5T142 76T77 196T53 364Q53 443 73 511T134 630T238 710T386 739Q443 739 492 725T581 683T648 612T687 511H617Q608 551 587 583T535 636T468 669T391 681Q320 681 269 656T185 586T137 477T121 337Q121 277 138 223T189 128T271 63T382 39Q411 39 442 45T502 67T556 106T599 165Q616 199 622 236T630 314H387Z"  />
<glyph unicode="H" horiz-adv-x="722" d="M80 0V720H148V411H574V720H642V0H574V353H148V0H80Z"  />
<glyph unicode="I" horiz-adv-x="278" d="M105 0V720H173V0H105Z"  />
<glyph unicode="J" horiz-adv-x="500" d="M90 228Q90 194 92 161T107 102T146 59T220 43Q290 43 318 83T347 199V720H415V197Q415 92 366 37T212 -19Q151 -19 114 1T57 56T29 135T22 228H90Z"  />
<glyph unicode="K" horiz-adv-x="667" d="M85 0V720H153V347L522 720H599L315 433L649 0H566L266 391L153 278V0H85Z"  />
<glyph unicode="L" horiz-adv-x="556" d="M81 0V720H149V58H535V0H81Z"  />
<glyph unicode="M" horiz-adv-x="833" d="M78 0V720H182L418 85H420L652 720H755V0H687V642H685L449 0H385L148 642H146V0H78Z"  />
<glyph unicode="N" horiz-adv-x="722" d="M149 628H147V0H79V720H156L572 91H574V720H642V0H563L149 628Z"  />
<glyph unicode="O" horiz-adv-x="778" d="M53 359Q53 438 74 507T138 627T242 709T385 739Q469 739 532 710T638 629T702 508T724 359Q724 281 703 213T639 93T534 11T388 -19Q305 -19 242 11T137 92T74 212T53 359ZM389 39Q459 39 509 65T592 136T640 238T656 359Q656 434 638 493T584 595T499 659T387 681Q318 681 268 654T185 583T137 480T121 359Q121 295 136 237T184 135T267 65T389 39Z"  />
<glyph unicode="P" horiz-adv-x="611" d="M78 0V720H341Q411 720 456 704T528 660T565 596T576 519Q576 459 552 420T488 359T400 327T300 318H146V0H78ZM302 376Q350 376 388 382T452 404T493 449T508 524Q508 592 464 627T322 662H146V376H302Z"  />
<glyph unicode="Q" horiz-adv-x="778" d="M707 -6L669 -52L563 30Q526 7 482 -6T383 -19Q300 -19 237 11T132 92T69 212T48 359Q48 434 68 502T130 623T233 707T380 739Q456 739 518 714T625 641T694 522T719 359Q719 271 692 196T611 68L707 -6ZM561 107Q607 151 629 217T651 359Q651 440 631 500T574 600T489 661T382 681Q313 681 263 654T180 582T132 479T116 359Q116 295 131 237T179 135T262 65T384 39Q422 39 453 47T510 71L428 134L464 181L561 107Z"  />
<glyph unicode="R" horiz-adv-x="667" d="M148 327V0H80V720H362Q481 720 544 676T607 531Q607 463 580 423T490 355Q522 344 540 323T567 275T578 218T582 160Q583 119 585 92T591 48T600 22T612 7V0H537Q526 18 522 50T515 117T511 185T505 239Q499 268 486 285T453 312T411 324T362 327H148ZM360 385Q398 385 430 393T487 418T525 463T539 528Q539 568 525 594T486 635T430 656T364 662H148V385H360Z"  />
<glyph unicode="S" horiz-adv-x="611" d="M109 215Q113 167 130 134T175 79T239 49T316 39Q364 39 399 51T456 83T488 131T499 188Q499 230 480 256T431 298T361 325T280 344T199 367T129 402T79 458T60 546Q60 583 75 618T121 680T198 723T304 739Q365 739 410 722T486 676T531 607T546 524H481Q481 565 467 595T427 644T370 672T304 681Q252 681 217 667T160 629T131 578T128 522Q134 487 156 466T210 432T280 410T359 392T436 369T503 334T549 278T567 191Q567 91 498 36T304 -19Q248 -19 200 -5T117 39T63 112T43 215H109Z"  />
<glyph unicode="T" horiz-adv-x="556" d="M16 720H540V662H312V0H244V662H16V720Z"  />
<glyph unicode="U" horiz-adv-x="722" d="M82 720H150V291Q150 157 200 98T361 39Q419 39 459 54T525 101T561 180T572 291V720H640V271Q640 130 571 56T361 -19Q220 -19 151 57T82 271V720Z"  />
<glyph unicode="V" horiz-adv-x="611" d="M18 720H89L306 80L522 720H593L343 0H268L18 720Z"  />
<glyph unicode="W" horiz-adv-x="889" d="M646 96H648L805 720H875L686 0H611L444 636H442L275 0H200L14 720H82L237 96H239L406 720H482L646 96Z"  />
<glyph unicode="X" horiz-adv-x="611" d="M304 318L95 0H18L266 370L28 720H107L304 417L502 720H581L345 370L592 0H514L304 318Z"  />
<glyph unicode="Y" horiz-adv-x="611" d="M302 373L519 720H598L337 314V0H269V309L12 720H90L302 373Z"  />
<glyph unicode="Z" horiz-adv-x="611" d="M31 0V57L492 662H70V720H576V663L115 58H579V0H31Z"  />
<glyph unicode="[" horiz-adv-x="333" d="M91 -191V739H282V689H155V-141H280V-191H91Z"  />
<glyph unicode="\" horiz-adv-x="278" d="M-10 739H46L281 -90H225L-10 739Z"  />
<glyph unicode="]" horiz-adv-x="333" d="M242 -191H51V-141H178V689H53V739H242V-191Z"  />
<glyph unicode="^" horiz-adv-x="660" d="M73 245L303 698H355L586 245H529L328 637L131 245H73Z"  />
<glyph unicode="_" horiz-adv-x="500" d="M500 -75V-125H0V-75H500Z"  />
<glyph unicode="`" horiz-adv-x="333" d="M45 713H123L234 574H183L45 713Z"  />
<glyph unicode="a" horiz-adv-x="556" d="M310 302Q327 304 350 308T389 319Q404 326 407 342T411 373Q411 419 382 448T282 478Q251 478 225 473T180 454T148 418T131 361H70Q73 407 91 439T137 492T203 522T283 532Q322 532 356 524T416 497T456 447T471 371V89Q471 54 483 45T534 49V2Q527 0 514 -4T487 -8Q473 -8 460 -5Q445 -3 436 4T422 22T414 45T412 72Q374 30 325 8T219 -14Q185 -14 154 -5T98 23T60 69T46 135Q46 267 227 291L310 302ZM411 272Q373 256 334 251T256 243Q187 238 149 212T110 133Q110 109 119 92T144 63T180 46T222 40Q258 40 292 49T352 76T395 123T411 191V272Z"  />
<glyph unicode="b" horiz-adv-x="611" d="M139 0H79V720H139V435Q168 483 218 507T324 532Q383 532 426 510T498 450T541 362T555 258Q555 201 542 151T501 65T428 7T321 -14Q296 -14 270 -7T220 13T175 45T141 91H139V0ZM139 261Q139 214 150 174T184 104T239 57T314 40Q352 40 384 53T440 93T477 156T491 243Q493 292 483 334T451 409T395 459T314 478Q273 478 241 461T186 414T151 345T139 261Z"  />
<glyph unicode="c" horiz-adv-x="556" d="M439 355Q423 413 384 445T285 478Q239 478 206 459T152 409T121 338T111 258Q111 217 120 178T151 108T205 59T285 40Q352 40 392 77T444 179H508Q500 136 483 101T438 40T372 0T285 -14Q223 -14 178 7T104 64T61 151T47 258Q47 312 62 361T108 449T182 509T285 532Q375 532 430 489T500 355H439Z"  />
<glyph unicode="d" horiz-adv-x="611" d="M472 720H532V0H472V91H470Q457 65 437 46T392 13T341 -7T290 -14Q227 -14 183 7T111 64T69 151T56 258Q56 312 70 362T112 449T184 509T287 532Q342 532 392 508T472 435V720ZM472 261Q472 305 460 344T426 413T371 460T297 478Q250 478 216 460T160 409T128 335T120 243Q120 194 133 157T171 93T227 54T297 40Q339 40 372 57T427 103T460 173T472 261Z"  />
<glyph unicode="e" horiz-adv-x="556" d="M109 245Q109 203 120 166T152 101T207 57T283 40Q342 40 384 71T440 159H507Q496 122 478 91T433 36T369 -1T283 -14Q221 -14 176 7T102 64T59 150T45 257Q45 314 61 364T108 451T183 510T283 532Q390 532 451 459T511 245H109ZM447 295Q447 333 437 366T406 424T354 463T283 478Q243 478 213 463T161 423T126 365T109 295H447Z"  />
<glyph unicode="f" horiz-adv-x="278" d="M20 468V518H97V600Q97 662 122 698T207 734Q221 734 233 733T257 730V675Q237 680 221 680Q198 680 185 672T166 649T159 618T157 582V518H257V468H157V0H97V468H20Z"  />
<glyph unicode="g" horiz-adv-x="611" d="M472 518H532V50Q532 -2 522 -49T484 -133T410 -190T289 -212Q232 -212 191 -198T124 -161T85 -113T70 -63H134Q141 -92 156 -110T191 -139T237 -154T289 -158Q350 -158 387 -137T443 -82T467 -5T472 83Q443 35 393 11T287 -14Q228 -14 185 8T113 68T70 156T56 260Q56 317 69 367T110 453T183 511T290 532Q315 532 341 525T391 505T436 472T470 427H472V518ZM472 257Q472 304 461 344T427 414T372 461T297 478Q259 478 227 465T171 425T134 362T120 275Q118 226 128 184T160 109T216 59T297 40Q338 40 370 57T425 104T460 173T472 257Z"  />
<glyph unicode="h" horiz-adv-x="556" d="M72 0V720H132V446Q168 484 206 508T299 532Q347 532 388 516T457 458Q476 430 479 401T483 339V0H423V338Q423 408 392 443T289 478Q261 478 238 470T197 447T165 415T145 377Q136 352 134 329T132 279V0H72Z"  />
<glyph unicode="i" horiz-adv-x="222" d="M81 0V518H141V0H81ZM78 631V720H144V631H78Z"  />
<glyph unicode="j" horiz-adv-x="222" d="M148 518V-69Q148 -102 145 -127T132 -169T101 -195T44 -204Q22 -204 5 -200V-147Q31 -150 47 -148T72 -136T84 -112T88 -77V518H148ZM151 631H85V720H151V631Z"  />
<glyph unicode="k" horiz-adv-x="500" d="M68 0V720H128V272L382 518H464L270 331L487 0H420L226 289L128 196V0H68Z"  />
<glyph unicode="l" horiz-adv-x="222" d="M81 0V720H141V0H81Z"  />
<glyph unicode="m" horiz-adv-x="833" d="M124 0H64V518H124V440H126Q149 485 192 508T286 532Q322 532 347 524T389 503T418 471T438 432Q464 483 507 507T607 532Q660 532 691 515T740 469T762 403T768 327V0H708V358Q708 414 685 446T597 478Q564 478 534 464T480 419Q470 406 464 389T453 352T448 314T446 279V0H386V358Q386 414 363 446T275 478Q242 478 212 464T158 419Q148 406 142 389T131 352T126 314T124 279V0Z"  />
<glyph unicode="n" horiz-adv-x="556" d="M132 0H72V518H132V446Q168 484 206 508T299 532Q347 532 388 516T457 458Q476 430 479 401T483 339V0H423V338Q423 408 392 443T289 478Q261 478 238 470T197 447T165 415T145 377Q136 352 134 329T132 279V0Z"  />
<glyph unicode="o" horiz-adv-x="556" d="M278 -14Q228 -13 185 4T109 55T57 140T38 259Q38 316 53 365T98 452T173 510T278 532Q339 532 384 511T459 453T503 366T518 259Q518 197 501 147T453 61T377 6T278 -14ZM454 259Q454 305 444 345T413 414T359 461T278 478Q231 478 198 460T143 411T112 341T102 259Q102 211 113 171T147 101T202 56T278 40Q325 40 358 58T413 108T444 178T454 259Z"  />
<glyph unicode="p" horiz-adv-x="611" d="M139 -204H79V518H139V427H141Q154 452 174 472T219 505T270 525T321 532Q384 532 428 511T500 454T542 367T555 260Q555 206 541 156T499 69T427 9T324 -14Q269 -14 219 10T139 83V-204ZM139 257Q139 213 151 174T185 105T240 58T314 40Q360 40 394 58T451 109T483 183T491 275Q491 324 478 361T440 425T384 464T314 478Q272 478 239 461T184 415T151 345T139 257Z"  />
<glyph unicode="q" horiz-adv-x="611" d="M472 518H532V-204H472V83Q443 35 393 11T287 -14Q228 -14 185 8T113 68T70 156T56 260Q56 317 69 367T110 453T183 511T290 532Q315 532 341 525T391 505T436 472T470 427H472V518ZM472 261Q472 305 460 344T426 413T371 460T297 478Q250 478 216 460T160 409T128 335T120 243Q120 194 133 157T171 93T227 54T297 40Q339 40 372 57T427 103T460 173T472 261Z"  />
<glyph unicode="r" horiz-adv-x="333" d="M135 0H75V518H135V421H137Q162 483 201 507T306 532V467Q255 468 222 451T170 405T143 337T135 254V0Z"  />
<glyph unicode="s" horiz-adv-x="500" d="M107 162Q121 95 157 68T262 40Q295 40 319 48T358 69T382 100T390 136Q390 174 366 192T304 221T224 239T144 262T83 305T58 384Q58 449 105 490T240 532Q324 532 376 495T440 369H379Q371 429 334 453T239 478Q182 478 152 454T122 389Q122 354 146 336T208 306T288 285T368 260T429 215T454 137Q454 100 438 72T394 24T328 -4T243 -14Q197 -14 162 -1T101 37T62 93T46 162H107Z"  />
<glyph unicode="t" horiz-adv-x="278" d="M254 -2Q243 -4 225 -9T185 -14Q140 -14 117 8T93 89V468H20V518H93V662H153V518H250V468H153V113Q153 94 154 80T160 57T175 44T205 40Q217 40 229 42T254 47V-2Z"  />
<glyph unicode="u" horiz-adv-x="556" d="M423 518H483V0H423V72Q411 58 396 43T362 16T316 -5T256 -14Q204 -14 169 0T113 41T82 101T72 177V518H132V178Q132 111 163 76T265 40Q302 40 331 54T381 95T412 157T423 236V518Z"  />
<glyph unicode="v" horiz-adv-x="500" d="M17 518H82L250 74L418 518H483L282 0H215L17 518Z"  />
<glyph unicode="w" horiz-adv-x="722" d="M510 80L646 518H707L539 0H475L362 435H360L245 0H173L15 518H75L209 76L329 518H396L510 80Z"  />
<glyph unicode="x" horiz-adv-x="500" d="M252 224L91 0H18L217 268L34 518H108L251 312L398 518H474L287 268L481 0H409L252 224Z"  />
<glyph unicode="y" horiz-adv-x="500" d="M68 -141Q80 -143 92 -145T118 -147Q143 -147 159 -131T185 -93T203 -46T219 -4L18 518H85L251 73L417 518H482L289 7Q271 -42 255 -81T220 -147T179 -189T125 -204Q109 -204 95 -202T68 -197V-141Z"  />
<glyph unicode="z" horiz-adv-x="500" d="M33 0V53L377 468H56V518H454V465L110 50H467V0H33Z"  />
<glyph unicode="{" horiz-adv-x="333" d="M127 577Q127 621 133 652T156 702T201 730T272 737Q191 709 191 616V424Q191 395 188 371T176 328T151 296T109 275V273Q158 262 174 228T191 138V-68Q191 -119 211 -147T279 -189V-191Q235 -192 206 -184T159 -158T134 -113T127 -47V157Q127 203 112 233T45 273V275Q73 283 89 293T113 318T124 351T127 395V577Z"  />
<glyph unicode="|" horiz-adv-x="222" d="M141 750V-250H81V750H141Z"  />
<glyph unicode="}" horiz-adv-x="333" d="M203 395Q203 349 218 319T285 279V277Q257 269 241 259T217 234T206 201T203 157V-25Q203 -69 197 -100T174 -150T129 -178T58 -185Q139 -157 139 -64V128Q139 157 142 181T154 224T179 256T221 277V279Q196 285 180 296T155 324T143 363T139 414V620Q139 671 119 699T51 741V743Q95 744 124 736T171 710T196 665T203 599V395Z"  />
<glyph unicode="~" horiz-adv-x="660" d="M221 324Q248 324 278 313T338 288Q368 274 394 263T441 252Q458 252 473 260T500 282T523 310T540 339L580 305Q569 285 556 266T525 231T486 206T440 196Q426 196 408 200T372 211T336 225T305 238Q285 246 264 257T221 268Q201 268 185 259T156 236T133 206T113 174L80 221Q91 237 104 255T135 288T173 314T221 324Z"  />
<glyph unicode="&#xA0;" horiz-adv-x="278" />
<glyph unicode="&#xA1;" horiz-adv-x="333" d="M189 352L203 37V-187H130V37L144 352H189ZM130 445V532H203V445H130Z"  />
<glyph unicode="&#xA2;" horiz-adv-x="556" d="M232 47Q244 44 256 42T283 40Q350 40 390 77T442 179H506Q500 140 483 105T438 44T371 2T283 -14Q264 -14 248 -12T215 -6L170 -141H123L172 9Q106 41 76 107T45 258Q45 324 63 375T113 461T188 514T283 532Q299 532 313 531T342 527L382 647H430L386 513Q480 473 498 355H437Q419 424 367 456L232 47ZM324 473Q314 476 304 477T283 478Q237 478 204 459T150 409T119 338T109 258Q109 201 128 149T191 68L324 473Z"  />
<glyph unicode="&#xA3;" horiz-adv-x="556" d="M350 365V323H199Q204 307 207 290T210 255Q210 227 202 201T181 152T150 107T114 67L116 65Q135 75 158 83T205 92Q239 92 262 86T305 71Q325 63 344 57T388 50Q423 50 448 67T496 107L530 56Q508 36 489 23T451 1T409 -10T356 -14Q338 -14 319 -7T277 8Q255 16 231 23T179 30Q150 30 125 19T74 -3L39 55Q83 87 114 133T145 235Q145 281 124 323H25V365H106Q100 379 91 394T73 427T59 469T53 522Q53 561 67 594T109 652T178 691T276 705Q325 705 367 690T439 647T487 579T503 488H437Q434 567 392 609T277 651Q247 651 218 643T167 619T131 577T117 519Q117 496 123 477T140 439T162 402T184 365H350Z"  />
<glyph unicode="&#xA4;" horiz-adv-x="556" d="M75 152Q51 187 39 222T27 300Q27 345 38 380T75 451L32 494L84 547L128 504Q162 530 201 541T282 553Q324 553 359 540T428 504L472 547L524 494L481 451Q507 414 518 378T529 295Q529 253 517 220T481 152L524 110L472 57L428 100Q360 50 273 50Q231 50 196 63T128 100L84 57L32 110L75 152ZM282 481Q243 482 209 469T151 431T112 373T99 300Q98 264 112 232T150 175T207 136T276 121Q313 121 346 135T404 173T443 231T458 303Q458 339 444 371T406 428T350 467T282 481Z"  />
<glyph unicode="&#xA5;" horiz-adv-x="556" d="M277 373L479 720H552L381 434H492V380H348L310 314V272H492V218H310V0H246V218H64V272H246V314L208 380H64V434H175L4 720H80L277 373Z"  />
<glyph unicode="&#xA6;" horiz-adv-x="222" d="M141 675V325H81V675H141ZM141 175V-175H81V175H141Z"  />
<glyph unicode="&#xA7;" horiz-adv-x="556" d="M150 184Q102 214 75 249T48 335Q48 386 79 423T155 479Q132 505 117 531T102 594Q102 623 113 649T148 696T205 727T283 739Q367 739 412 691T456 560H402Q400 623 371 654T278 685Q230 685 198 662T166 588Q166 554 191 527T255 476T337 428T419 377T482 317T508 240Q508 211 499 189T475 148T440 114T398 84Q403 79 413 70T432 47T449 15T456 -26Q456 -64 442 -93T404 -141T348 -171T280 -181Q195 -181 147 -132T94 1H155Q155 -61 186 -94T281 -127Q302 -127 322 -121T357 -103T382 -74T392 -33Q392 -9 382 10T355 46T319 76T281 102L150 184ZM190 447Q150 430 126 405T102 343Q102 324 110 308T130 279T157 254T187 232L365 117Q381 126 397 137T426 162T446 192T454 230Q454 250 446 266T424 296T394 321T363 341L190 447Z"  />
<glyph unicode="&#xA8;" horiz-adv-x="333" d="M60 686H125V584H60V686ZM219 686H284V584H219V686Z"  />
<glyph unicode="&#xA9;" horiz-adv-x="800" d="M401 -19Q322 -19 253 11T133 92T51 213T21 361Q21 439 51 508T132 628T253 709T401 739Q479 739 548 709T668 628T749 508T779 361Q779 282 750 213T669 93T548 11T401 -19ZM401 31Q470 31 528 56T629 126T695 231T719 361Q719 430 695 490T629 594T529 663T401 689Q332 689 273 664T172 594T105 490T81 361Q81 291 105 231T171 127T273 57T401 31ZM593 292Q590 258 575 231T535 184T481 155T418 145Q370 145 332 162T266 208T223 277T208 364Q208 411 222 450T263 519T328 564T415 581Q484 581 533 544T593 438H539Q531 483 496 510T416 537Q378 537 350 524T304 487T276 432T266 365Q266 331 276 299T305 243T353 204T418 189Q440 189 460 196T497 216T525 249T539 292H593Z"  />
<glyph unicode="&#xAA;" horiz-adv-x="334" d="M179 601Q190 602 205 604T231 611Q241 615 243 625T245 643Q245 671 226 690T161 709Q120 709 94 693T63 636H23Q28 691 67 715T162 739Q187 739 209 734T248 718T274 688T284 642V473Q284 452 292 447T325 449V421Q316 418 307 416T277 416Q257 419 252 432T245 463Q196 411 120 411Q98 411 78 416T42 433T17 460T8 500Q8 579 125 594L179 601ZM245 583Q220 573 195 570T144 565Q99 562 73 547T47 499Q47 470 70 456T122 441Q145 441 167 446T206 463T234 492T245 534V583Z"  />
<glyph unicode="&#xAB;" horiz-adv-x="556" d="M297 291L443 404V341L339 259L443 179V117L297 228V291ZM113 291L259 404V341L155 259L259 179V117L113 228V291Z"  />
<glyph unicode="&#xAC;" horiz-adv-x="660" d="M516 318H80V378H580V112H516V318Z"  />
<glyph unicode="&#xAD;" horiz-adv-x="333" d="M293 291V229H40V291H293Z"  />
<glyph unicode="&#xAE;" horiz-adv-x="800" d="M401 -19Q322 -19 253 11T133 92T51 213T21 361Q21 439 51 508T132 628T253 709T401 739Q479 739 548 709T668 628T749 508T779 361Q779 282 750 213T669 93T548 11T401 -19ZM401 31Q470 31 528 56T629 126T695 231T719 361Q719 430 695 490T629 594T529 663T401 689Q332 689 273 664T172 594T105 490T81 361Q81 291 105 231T171 127T273 57T401 31ZM590 149H528L407 344H312V149H260V572H445Q529 572 562 542T595 460Q595 429 585 407T557 372T515 352T462 344L590 149ZM391 385Q413 385 439 385T487 391T524 413T539 461Q539 486 530 500T505 522T471 532T433 535H312V385H391Z"  />
<glyph unicode="&#xAF;" horiz-adv-x="333" d="M23 657H319V612H23V657Z"  />
<glyph unicode="&#xB0;" horiz-adv-x="400" d="M350 555Q350 524 338 497T306 449T258 417T200 405Q169 405 142 417T94 449T62 496T50 555Q50 586 61 613T93 660T141 693T200 705Q231 705 258 693T305 661T338 613T350 555ZM310 555Q310 577 301 597T277 632T242 656T199 665Q176 665 157 656T122 632T99 597T90 555Q90 532 98 512T122 477T157 454T200 445Q222 445 242 453T277 477T301 512T310 555Z"  />
<glyph unicode="&#xB1;" horiz-adv-x="660" d="M300 500H360V330H580V270H360V100H300V270H80V330H300V500ZM80 60H580V0H80V60Z"  />
<glyph unicode="&#xB2;" horiz-adv-x="333" d="M28 600Q28 663 68 701T177 739Q246 739 282 705T318 622Q318 580 297 552T244 504T179 468T119 434Q96 418 79 399T59 348H314V316H15Q15 346 21 371T50 419Q74 444 100 462T150 494T197 520T236 546T263 577T273 620Q273 662 244 684T172 707Q149 707 131 699T99 675T78 641T72 600H28Z"  />
<glyph unicode="&#xB3;" horiz-adv-x="333" d="M133 551Q162 551 186 554T227 567T254 592T264 632Q264 671 235 689T167 707Q122 707 95 682T68 616H27Q27 645 37 668T71 711Q93 729 119 734T175 739Q202 739 226 733T267 713T295 681T306 635Q306 567 241 540Q266 533 281 522T306 496T318 466T322 436Q322 383 284 347T174 308Q134 308 105 314T57 336T26 376T11 438H53Q53 390 84 365T167 340Q192 340 213 348T249 369T273 399T280 435Q279 461 268 478T236 505T190 518T133 520V551Z"  />
<glyph unicode="&#xB4;" horiz-adv-x="333" d="M109 574L220 713H297L160 574H109Z"  />
<glyph unicode="&#xB5;" horiz-adv-x="556" d="M423 518H483V0H423V72Q411 58 396 43T362 16T316 -5T256 -14Q214 -14 183 -4T132 18V-204H72V518H132V178Q132 111 163 76T265 40Q302 40 331 54T381 95T412 157T423 236V518Z"  />
<glyph unicode="&#xB6;" horiz-adv-x="650" d="M258 336Q220 336 185 351T124 392T82 452T66 526Q66 620 124 670T289 720H506V-146H446V653H318V-146H258V336Z"  />
<glyph unicode="&#xB7;" horiz-adv-x="278" d="M139 398Q159 398 173 384T187 350Q187 330 173 316T139 301Q119 301 105 315T90 350Q90 370 105 384T139 398Z"  />
<glyph unicode="&#xB8;" horiz-adv-x="333" d="M69 -158Q85 -163 100 -168T133 -173Q144 -173 155 -171T177 -163T193 -148T199 -126Q199 -106 184 -97T149 -87Q138 -87 127 -89T105 -95L90 -82L150 0H189L142 -59Q151 -57 160 -55T178 -53Q211 -53 231 -69T255 -105Q260 -132 253 -151T229 -183T191 -201T145 -207Q122 -207 99 -202T54 -188L69 -158Z"  />
<glyph unicode="&#xB9;" horiz-adv-x="333" d="M205 630H87V656Q113 657 134 660T171 671T198 696T214 739H247V316H205V630Z"  />
<glyph unicode="&#xBA;" horiz-adv-x="334" d="M167 411Q135 412 107 422T57 453T24 504T11 575Q11 609 20 639T49 691T98 726T167 739Q206 739 235 726T284 691T313 639T323 575Q323 501 281 456T167 411ZM50 575Q50 517 80 479T167 441Q198 441 220 452T256 483T277 526T284 575Q284 602 278 626T257 669T220 698T167 709Q136 709 114 698T78 667T57 624T50 575Z"  />
<glyph unicode="&#xBB;" horiz-adv-x="556" d="M443 230L297 117V180L401 262L297 342V404L443 293V230ZM259 230L113 117V180L217 262L113 342V404L259 293V230Z"  />
<glyph unicode="&#xBC;" horiz-adv-x="834" d="M689 104H480V137L693 419H731V137H794V104H731V0H689V104ZM168 -14L612 705H663L219 -14H168ZM158 630H40V656Q66 657 87 660T124 671T151 696T167 739H200V316H158V630ZM521 137H689V361L521 137Z"  />
<glyph unicode="&#xBD;" horiz-adv-x="834" d="M504 284Q504 347 544 385T653 423Q722 423 758 389T794 306Q794 264 773 236T720 188T655 152T595 118Q572 102 555 83T535 32H790V0H491Q491 30 497 55T526 103Q550 128 576 146T626 178T673 204T712 230T739 261T749 304Q749 346 720 368T648 391Q625 391 607 383T575 359T554 325T548 284H504ZM128 -14L572 705H623L179 -14H128ZM158 630H40V656Q66 657 87 660T124 671T151 696T167 739H200V316H158V630Z"  />
<glyph unicode="&#xBE;" horiz-adv-x="834" d="M689 104H480V137L693 419H731V137H794V104H731V0H689V104ZM162 551Q191 551 215 554T256 567T283 592T293 632Q293 671 264 689T196 707Q151 707 124 682T97 616H56Q56 645 66 668T100 711Q122 729 148 734T204 739Q231 739 255 733T296 713T324 681T335 635Q335 567 270 540Q295 533 310 522T335 496T347 466T351 436Q351 383 313 347T203 308Q163 308 134 314T86 336T55 376T40 438H82Q82 390 113 365T196 340Q221 340 242 348T278 369T302 399T309 435Q308 461 297 478T265 505T219 518T162 520V551ZM208 -14L652 705H703L259 -14H208ZM521 137H689V361L521 137Z"  />
<glyph unicode="&#xBF;" horiz-adv-x="500" d="M462 16Q466 -34 451 -75T407 -145T336 -191T246 -207Q195 -207 155 -194T86 -156T43 -96T28 -19Q28 24 47 56T94 115T152 169T205 231Q222 257 224 288T226 350H284Q285 295 277 250T229 164Q207 141 183 119T139 75T105 28T92 -24Q92 -51 102 -74T133 -115T182 -143T248 -153Q285 -153 314 -140T362 -104T392 -51T401 16H462ZM290 532V444H217V532H290Z"  />
<glyph unicode="&#xC0;" horiz-adv-x="667" d="M15 0L298 720H375L651 0H581L498 226H170L85 0H15ZM193 284H475L334 662L193 284ZM212 915H290L401 776H350L212 915Z"  />
<glyph unicode="&#xC1;" horiz-adv-x="667" d="M15 0L298 720H375L651 0H581L498 226H170L85 0H15ZM193 284H475L334 662L193 284ZM276 776L387 915H464L327 776H276Z"  />
<glyph unicode="&#xC2;" horiz-adv-x="667" d="M15 0L298 720H375L651 0H581L498 226H170L85 0H15ZM193 284H475L334 662L193 284ZM256 776H191L305 915H372L485 776H420L338 878L256 776Z"  />
<glyph unicode="&#xC3;" horiz-adv-x="667" d="M15 0L298 720H375L651 0H581L498 226H170L85 0H15ZM193 284H475L334 662L193 284ZM183 788Q185 806 190 820T203 847Q218 868 241 878T291 883Q305 880 321 873T353 859T385 846T414 840Q436 840 445 856T458 890H496Q495 880 493 871T488 852Q477 828 460 810T414 792Q393 792 375 799T338 814T303 830T268 837Q245 837 235 822T219 788H183Z"  />
<glyph unicode="&#xC4;" horiz-adv-x="667" d="M15 0L298 720H375L651 0H581L498 226H170L85 0H15ZM193 284H475L334 662L193 284ZM227 888H292V786H227V888ZM386 888H451V786H386V888Z"  />
<glyph unicode="&#xC5;" horiz-adv-x="667" d="M15 0L298 720H375L651 0H581L498 226H170L85 0H15ZM193 284H475L334 662L193 284ZM334 780Q314 780 296 788T264 809T242 841T234 879Q234 899 242 917T264 949T296 971T334 979Q354 979 372 971T403 949T425 917T433 879Q433 859 425 841T404 810T372 788T334 780ZM334 813Q360 813 380 833T400 879Q400 905 381 925T334 946Q307 946 287 926T267 879Q267 852 287 833T334 813Z"  />
<glyph unicode="&#xC6;" horiz-adv-x="1000" d="M5 0L318 720H948V662H540V402H911V344H540V58H960V0H472V226H169L73 0H5ZM197 284H472V662H358L197 284Z"  />
<glyph unicode="&#xC7;" horiz-adv-x="722" d="M592 511Q571 603 514 642T365 681Q300 681 253 655T176 585T131 484T116 362Q116 302 128 244T170 141T248 67T371 39Q417 39 455 54T521 95T569 158T599 237H670Q658 186 636 141T578 60T491 4T370 -18L337 -59Q346 -57 355 -55T373 -53Q406 -53 426 -69T450 -105Q455 -132 448 -151T424 -183T386 -201T340 -207Q317 -207 294 -202T249 -188L264 -158Q280 -163 295 -168T328 -173Q339 -173 350 -171T372 -163T388 -148T394 -126Q394 -106 379 -97T344 -87Q333 -87 322 -89T300 -95L285 -82L332 -18Q256 -13 202 19T114 102T64 220T48 360Q48 463 73 535T144 652T250 718T383 739Q438 739 485 725T569 681T629 610T662 511H592Z"  />
<glyph unicode="&#xC8;" horiz-adv-x="611" d="M81 0V720H560V662H149V402H520V344H149V58H570V0H81ZM184 915H262L373 776H322L184 915Z"  />
<glyph unicode="&#xC9;" horiz-adv-x="611" d="M81 0V720H560V662H149V402H520V344H149V58H570V0H81ZM248 776L359 915H436L299 776H248Z"  />
<glyph unicode="&#xCA;" horiz-adv-x="611" d="M81 0V720H560V662H149V402H520V344H149V58H570V0H81ZM228 776H163L277 915H344L457 776H392L310 878L228 776Z"  />
<glyph unicode="&#xCB;" horiz-adv-x="611" d="M81 0V720H560V662H149V402H520V344H149V58H570V0H81ZM358 888H423V786H358V888ZM199 888H264V786H199V888Z"  />
<glyph unicode="&#xCC;" horiz-adv-x="278" d="M105 0V720H173V0H105ZM18 915H96L207 776H156L18 915Z"  />
<glyph unicode="&#xCD;" horiz-adv-x="278" d="M105 0V720H173V0H105ZM61 776L172 915H249L112 776H61Z"  />
<glyph unicode="&#xCE;" horiz-adv-x="278" d="M105 0V720H173V0H105ZM41 776H-24L90 915H157L270 776H205L123 878L41 776Z"  />
<glyph unicode="&#xCF;" horiz-adv-x="278" d="M105 0V720H173V0H105ZM183 888H248V786H183V888ZM24 888H89V786H24V888Z"  />
<glyph unicode="&#xD0;" horiz-adv-x="722" d="M81 720H327Q357 720 386 719T443 712T497 695T549 666Q585 640 608 603T644 524T663 440T669 361Q669 325 665 288T650 216T624 148T582 88Q557 60 528 43T466 17T398 4T327 0H81V353H10V411H81V720ZM149 411H310V353H149V58H312Q358 58 398 63T481 91Q517 109 540 140T576 207T595 284T601 361Q601 400 596 440T577 517T539 584T477 635Q445 652 401 657T312 662H149V411Z"  />
<glyph unicode="&#xD1;" horiz-adv-x="722" d="M149 628H147V0H79V720H156L572 91H574V720H642V0H563L149 628ZM211 788Q213 806 218 820T231 847Q246 868 269 878T319 883Q333 880 349 873T381 859T413 846T442 840Q464 840 473 856T486 890H524Q523 880 521 871T516 852Q505 828 488 810T442 792Q421 792 403 799T366 814T331 830T296 837Q273 837 263 822T247 788H211Z"  />
<glyph unicode="&#xD2;" horiz-adv-x="778" d="M53 359Q53 438 74 507T138 627T242 709T385 739Q469 739 532 710T638 629T702 508T724 359Q724 281 703 213T639 93T534 11T388 -19Q305 -19 242 11T137 92T74 212T53 359ZM389 39Q459 39 509 65T592 136T640 238T656 359Q656 434 638 493T584 595T499 659T387 681Q318 681 268 654T185 583T137 480T121 359Q121 295 136 237T184 135T267 65T389 39ZM268 915H346L457 776H406L268 915Z"  />
<glyph unicode="&#xD3;" horiz-adv-x="778" d="M53 359Q53 438 74 507T138 627T242 709T385 739Q469 739 532 710T638 629T702 508T724 359Q724 281 703 213T639 93T534 11T388 -19Q305 -19 242 11T137 92T74 212T53 359ZM389 39Q459 39 509 65T592 136T640 238T656 359Q656 434 638 493T584 595T499 659T387 681Q318 681 268 654T185 583T137 480T121 359Q121 295 136 237T184 135T267 65T389 39ZM332 776L443 915H520L383 776H332Z"  />
<glyph unicode="&#xD4;" horiz-adv-x="778" d="M53 359Q53 438 74 507T138 627T242 709T385 739Q469 739 532 710T638 629T702 508T724 359Q724 281 703 213T639 93T534 11T388 -19Q305 -19 242 11T137 92T74 212T53 359ZM389 39Q459 39 509 65T592 136T640 238T656 359Q656 434 638 493T584 595T499 659T387 681Q318 681 268 654T185 583T137 480T121 359Q121 295 136 237T184 135T267 65T389 39ZM312 776H247L361 915H428L541 776H476L394 878L312 776Z"  />
<glyph unicode="&#xD5;" horiz-adv-x="778" d="M53 359Q53 438 74 507T138 627T242 709T385 739Q469 739 532 710T638 629T702 508T724 359Q724 281 703 213T639 93T534 11T388 -19Q305 -19 242 11T137 92T74 212T53 359ZM389 39Q459 39 509 65T592 136T640 238T656 359Q656 434 638 493T584 595T499 659T387 681Q318 681 268 654T185 583T137 480T121 359Q121 295 136 237T184 135T267 65T389 39ZM239 788Q241 806 246 820T259 847Q274 868 297 878T347 883Q361 880 377 873T409 859T441 846T470 840Q492 840 501 856T514 890H552Q551 880 549 871T544 852Q533 828 516 810T470 792Q449 792 431 799T394 814T359 830T324 837Q301 837 291 822T275 788H239Z"  />
<glyph unicode="&#xD6;" horiz-adv-x="778" d="M53 359Q53 438 74 507T138 627T242 709T385 739Q469 739 532 710T638 629T702 508T724 359Q724 281 703 213T639 93T534 11T388 -19Q305 -19 242 11T137 92T74 212T53 359ZM389 39Q459 39 509 65T592 136T640 238T656 359Q656 434 638 493T584 595T499 659T387 681Q318 681 268 654T185 583T137 480T121 359Q121 295 136 237T184 135T267 65T389 39ZM283 888H348V786H283V888ZM442 888H507V786H442V888Z"  />
<glyph unicode="&#xD7;" horiz-adv-x="660" d="M119 6L82 42L293 253L82 464L119 500L330 290L540 500L577 464L367 253L577 42L540 6L330 216L119 6Z"  />
<glyph unicode="&#xD8;" horiz-adv-x="778" d="M697 747L736 712L649 612Q678 580 699 515T721 359Q721 281 700 213T636 93T531 11T385 -19Q316 -19 262 1T166 60L81 -37L42 -3L131 98Q90 149 70 215T50 359Q50 439 72 508T137 629T241 709T382 739Q450 739 508 719T614 652L697 747ZM572 604Q543 636 498 658T384 681Q315 681 265 654T182 582T134 479T118 359Q118 299 131 245T174 147L572 604ZM207 107Q239 75 283 57T386 39Q456 39 506 65T589 135T637 238T653 359Q653 412 642 464T604 560L207 107Z"  />
<glyph unicode="&#xD9;" horiz-adv-x="722" d="M82 720H150V291Q150 157 200 98T361 39Q419 39 459 54T525 101T561 180T572 291V720H640V271Q640 130 571 56T361 -19Q220 -19 151 57T82 271V720ZM240 915H318L429 776H378L240 915Z"  />
<glyph unicode="&#xDA;" horiz-adv-x="722" d="M82 720H150V291Q150 157 200 98T361 39Q419 39 459 54T525 101T561 180T572 291V720H640V271Q640 130 571 56T361 -19Q220 -19 151 57T82 271V720ZM304 776L415 915H492L355 776H304Z"  />
<glyph unicode="&#xDB;" horiz-adv-x="722" d="M82 720H150V291Q150 157 200 98T361 39Q419 39 459 54T525 101T561 180T572 291V720H640V271Q640 130 571 56T361 -19Q220 -19 151 57T82 271V720ZM284 776H219L333 915H400L513 776H448L366 878L284 776Z"  />
<glyph unicode="&#xDC;" horiz-adv-x="722" d="M82 720H150V291Q150 157 200 98T361 39Q419 39 459 54T525 101T561 180T572 291V720H640V271Q640 130 571 56T361 -19Q220 -19 151 57T82 271V720ZM414 888H479V786H414V888ZM255 888H320V786H255V888Z"  />
<glyph unicode="&#xDD;" horiz-adv-x="611" d="M302 373L519 720H598L337 314V0H269V309L12 720H90L302 373ZM248 776L359 915H436L299 776H248Z"  />
<glyph unicode="&#xDE;" horiz-adv-x="611" d="M78 0V720H146V570H341Q411 570 456 554T528 510T565 446T576 369Q576 309 552 270T488 209T400 177T300 168H146V0H78ZM302 226Q350 226 388 232T452 254T493 299T508 374Q508 442 464 477T322 512H146V226H302Z"  />
<glyph unicode="&#xDF;" horiz-adv-x="500" d="M211 425Q244 426 273 432T323 453T356 491T368 549Q368 605 339 642T242 680Q198 680 173 670T134 640T116 593T112 533V0H52V544Q52 637 98 685T239 734Q282 734 317 721T378 684T418 626T432 548Q432 500 409 466T348 403Q376 393 397 375T431 332T452 280T459 224Q459 107 404 47T248 -14Q226 -14 211 -9V44Q248 37 281 44T339 70T380 122T395 199Q395 294 351 334T211 375V425Z"  />
<glyph unicode="&#xE0;" horiz-adv-x="556" d="M310 302Q327 304 350 308T389 319Q404 326 407 342T411 373Q411 419 382 448T282 478Q251 478 225 473T180 454T148 418T131 361H70Q73 407 91 439T137 492T203 522T283 532Q322 532 356 524T416 497T456 447T471 371V89Q471 54 483 45T534 49V2Q527 0 514 -4T487 -8Q473 -8 460 -5Q445 -3 436 4T422 22T414 45T412 72Q374 30 325 8T219 -14Q185 -14 154 -5T98 23T60 69T46 135Q46 267 227 291L310 302ZM411 272Q373 256 334 251T256 243Q187 238 149 212T110 133Q110 109 119 92T144 63T180 46T222 40Q258 40 292 49T352 76T395 123T411 191V272ZM157 713H235L346 574H295L157 713Z"  />
<glyph unicode="&#xE1;" horiz-adv-x="556" d="M310 302Q327 304 350 308T389 319Q404 326 407 342T411 373Q411 419 382 448T282 478Q251 478 225 473T180 454T148 418T131 361H70Q73 407 91 439T137 492T203 522T283 532Q322 532 356 524T416 497T456 447T471 371V89Q471 54 483 45T534 49V2Q527 0 514 -4T487 -8Q473 -8 460 -5Q445 -3 436 4T422 22T414 45T412 72Q374 30 325 8T219 -14Q185 -14 154 -5T98 23T60 69T46 135Q46 267 227 291L310 302ZM411 272Q373 256 334 251T256 243Q187 238 149 212T110 133Q110 109 119 92T144 63T180 46T222 40Q258 40 292 49T352 76T395 123T411 191V272ZM221 574L332 713H409L272 574H221Z"  />
<glyph unicode="&#xE2;" horiz-adv-x="556" d="M310 302Q327 304 350 308T389 319Q404 326 407 342T411 373Q411 419 382 448T282 478Q251 478 225 473T180 454T148 418T131 361H70Q73 407 91 439T137 492T203 522T283 532Q322 532 356 524T416 497T456 447T471 371V89Q471 54 483 45T534 49V2Q527 0 514 -4T487 -8Q473 -8 460 -5Q445 -3 436 4T422 22T414 45T412 72Q374 30 325 8T219 -14Q185 -14 154 -5T98 23T60 69T46 135Q46 267 227 291L310 302ZM411 272Q373 256 334 251T256 243Q187 238 149 212T110 133Q110 109 119 92T144 63T180 46T222 40Q258 40 292 49T352 76T395 123T411 191V272ZM201 574H136L250 713H317L430 574H365L283 676L201 574Z"  />
<glyph unicode="&#xE3;" horiz-adv-x="556" d="M310 302Q327 304 350 308T389 319Q404 326 407 342T411 373Q411 419 382 448T282 478Q251 478 225 473T180 454T148 418T131 361H70Q73 407 91 439T137 492T203 522T283 532Q322 532 356 524T416 497T456 447T471 371V89Q471 54 483 45T534 49V2Q527 0 514 -4T487 -8Q473 -8 460 -5Q445 -3 436 4T422 22T414 45T412 72Q374 30 325 8T219 -14Q185 -14 154 -5T98 23T60 69T46 135Q46 267 227 291L310 302ZM411 272Q373 256 334 251T256 243Q187 238 149 212T110 133Q110 109 119 92T144 63T180 46T222 40Q258 40 292 49T352 76T395 123T411 191V272ZM128 586Q130 604 135 618T148 645Q163 666 186 676T236 681Q250 678 266 671T298 657T330 644T359 638Q381 638 390 654T403 688H441Q440 678 438 669T433 650Q422 626 405 608T359 590Q338 590 320 597T283 612T248 628T213 635Q190 635 180 620T164 586H128Z"  />
<glyph unicode="&#xE4;" horiz-adv-x="556" d="M310 302Q327 304 350 308T389 319Q404 326 407 342T411 373Q411 419 382 448T282 478Q251 478 225 473T180 454T148 418T131 361H70Q73 407 91 439T137 492T203 522T283 532Q322 532 356 524T416 497T456 447T471 371V89Q471 54 483 45T534 49V2Q527 0 514 -4T487 -8Q473 -8 460 -5Q445 -3 436 4T422 22T414 45T412 72Q374 30 325 8T219 -14Q185 -14 154 -5T98 23T60 69T46 135Q46 267 227 291L310 302ZM411 272Q373 256 334 251T256 243Q187 238 149 212T110 133Q110 109 119 92T144 63T180 46T222 40Q258 40 292 49T352 76T395 123T411 191V272ZM172 686H237V584H172V686ZM331 686H396V584H331V686Z"  />
<glyph unicode="&#xE5;" horiz-adv-x="556" d="M310 302Q327 304 350 308T389 319Q404 326 407 342T411 373Q411 419 382 448T282 478Q251 478 225 473T180 454T148 418T131 361H70Q73 407 91 439T137 492T203 522T283 532Q322 532 356 524T416 497T456 447T471 371V89Q471 54 483 45T534 49V2Q527 0 514 -4T487 -8Q473 -8 460 -5Q445 -3 436 4T422 22T414 45T412 72Q374 30 325 8T219 -14Q185 -14 154 -5T98 23T60 69T46 135Q46 267 227 291L310 302ZM411 272Q373 256 334 251T256 243Q187 238 149 212T110 133Q110 109 119 92T144 63T180 46T222 40Q258 40 292 49T352 76T395 123T411 191V272ZM279 578Q259 578 241 586T209 607T187 639T179 677Q179 697 187 715T209 747T241 769T279 777Q299 777 317 769T348 747T370 715T378 677Q378 657 370 639T349 608T317 586T279 578ZM279 611Q305 611 325 631T345 677Q345 703 326 723T279 744Q252 744 232 724T212 677Q212 650 232 631T279 611Z"  />
<glyph unicode="&#xE6;" horiz-adv-x="889" d="M276 301Q315 305 338 310T373 322T389 339T393 365Q393 431 365 454T267 478Q207 478 169 453T123 364H61Q64 408 80 439T124 491T188 522T265 532Q290 532 317 529T370 516T415 490T446 447Q480 497 524 514T627 532Q692 532 734 510T802 448T837 357T847 245H457Q457 203 466 166T497 101T550 57T629 40Q689 40 727 72T780 160H843Q823 76 768 31T624 -14Q556 -14 508 13T424 100Q410 80 392 60T349 24T289 -3T206 -14Q171 -14 141 -6T88 21T52 66T39 132Q39 200 83 242T219 295L276 301ZM393 274Q369 261 339 256T276 246T213 238T158 223T118 193T103 141Q103 90 132 65T211 40Q302 40 347 85T393 204V274ZM783 295Q783 332 773 365T744 424T694 463T625 478Q578 478 546 460T494 414T466 354T457 295H783Z"  />
<glyph unicode="&#xE7;" horiz-adv-x="556" d="M439 355Q423 413 384 445T285 478Q239 478 206 459T152 409T121 338T111 258Q111 217 120 178T151 108T205 59T285 40Q352 40 392 77T444 179H508Q500 137 483 102T439 42T375 2T290 -14L254 -59Q263 -57 272 -55T290 -53Q323 -53 343 -69T367 -105Q372 -132 365 -151T341 -183T303 -201T257 -207Q234 -207 211 -202T166 -188L181 -158Q197 -163 212 -168T245 -173Q256 -173 267 -171T289 -163T305 -148T311 -126Q311 -106 296 -97T261 -87Q250 -87 239 -89T217 -95L202 -82L254 -11Q200 -6 161 16T97 75T59 157T47 258Q47 312 62 361T108 449T182 509T285 532Q375 532 430 489T500 355H439Z"  />
<glyph unicode="&#xE8;" horiz-adv-x="556" d="M109 245Q109 203 120 166T152 101T207 57T283 40Q342 40 384 71T440 159H507Q496 122 478 91T433 36T369 -1T283 -14Q221 -14 176 7T102 64T59 150T45 257Q45 314 61 364T108 451T183 510T283 532Q390 532 451 459T511 245H109ZM447 295Q447 333 437 366T406 424T354 463T283 478Q243 478 213 463T161 423T126 365T109 295H447ZM157 713H235L346 574H295L157 713Z"  />
<glyph unicode="&#xE9;" horiz-adv-x="556" d="M109 245Q109 203 120 166T152 101T207 57T283 40Q342 40 384 71T440 159H507Q496 122 478 91T433 36T369 -1T283 -14Q221 -14 176 7T102 64T59 150T45 257Q45 314 61 364T108 451T183 510T283 532Q390 532 451 459T511 245H109ZM447 295Q447 333 437 366T406 424T354 463T283 478Q243 478 213 463T161 423T126 365T109 295H447ZM221 574L332 713H409L272 574H221Z"  />
<glyph unicode="&#xEA;" horiz-adv-x="556" d="M109 245Q109 203 120 166T152 101T207 57T283 40Q342 40 384 71T440 159H507Q496 122 478 91T433 36T369 -1T283 -14Q221 -14 176 7T102 64T59 150T45 257Q45 314 61 364T108 451T183 510T283 532Q390 532 451 459T511 245H109ZM447 295Q447 333 437 366T406 424T354 463T283 478Q243 478 213 463T161 423T126 365T109 295H447ZM201 574H136L250 713H317L430 574H365L283 676L201 574Z"  />
<glyph unicode="&#xEB;" horiz-adv-x="556" d="M109 245Q109 203 120 166T152 101T207 57T283 40Q342 40 384 71T440 159H507Q496 122 478 91T433 36T369 -1T283 -14Q221 -14 176 7T102 64T59 150T45 257Q45 314 61 364T108 451T183 510T283 532Q390 532 451 459T511 245H109ZM447 295Q447 333 437 366T406 424T354 463T283 478Q243 478 213 463T161 423T126 365T109 295H447ZM172 686H237V584H172V686ZM331 686H396V584H331V686Z"  />
<glyph unicode="&#xEC;" horiz-adv-x="222" d="M78 0V518H138V0H78ZM-10 713H68L179 574H128L-10 713Z"  />
<glyph unicode="&#xED;" horiz-adv-x="222" d="M78 0V518H138V0H78ZM33 574L144 713H221L84 574H33Z"  />
<glyph unicode="&#xEE;" horiz-adv-x="222" d="M78 0V518H138V0H78ZM13 574H-52L62 713H129L242 574H177L95 676L13 574Z"  />
<glyph unicode="&#xEF;" horiz-adv-x="222" d="M78 0V518H138V0H78ZM143 686H208V584H143V686ZM-16 686H49V584H-16V686Z"  />
<glyph unicode="&#xF0;" horiz-adv-x="556" d="M268 586L230 610L295 662Q278 674 258 684T215 706L256 739Q277 730 296 719T335 694L390 739L427 714L368 666Q438 600 478 497T518 259Q518 197 501 147T453 61T377 6T278 -14Q228 -13 185 4T109 55T57 140T38 259Q38 310 51 359T93 446T167 508T274 532Q299 532 318 530T353 523T386 509T420 486Q402 537 380 573T329 635L268 586ZM454 259Q454 305 444 345T413 414T359 461T278 478Q231 478 198 460T143 411T112 341T102 259Q102 211 113 171T147 101T202 56T278 40Q325 40 358 58T413 108T444 178T454 259Z"  />
<glyph unicode="&#xF1;" horiz-adv-x="556" d="M132 0H72V518H132V446Q168 484 206 508T299 532Q347 532 388 516T457 458Q476 430 479 401T483 339V0H423V338Q423 408 392 443T289 478Q261 478 238 470T197 447T165 415T145 377Q136 352 134 329T132 279V0ZM128 586Q130 604 135 618T148 645Q163 666 186 676T236 681Q250 678 266 671T298 657T330 644T359 638Q381 638 390 654T403 688H441Q440 678 438 669T433 650Q422 626 405 608T359 590Q338 590 320 597T283 612T248 628T213 635Q190 635 180 620T164 586H128Z"  />
<glyph unicode="&#xF2;" horiz-adv-x="556" d="M278 -14Q228 -13 185 4T109 55T57 140T38 259Q38 316 53 365T98 452T173 510T278 532Q339 532 384 511T459 453T503 366T518 259Q518 197 501 147T453 61T377 6T278 -14ZM454 259Q454 305 444 345T413 414T359 461T278 478Q231 478 198 460T143 411T112 341T102 259Q102 211 113 171T147 101T202 56T278 40Q325 40 358 58T413 108T444 178T454 259ZM157 713H235L346 574H295L157 713Z"  />
<glyph unicode="&#xF3;" horiz-adv-x="556" d="M278 -14Q228 -13 185 4T109 55T57 140T38 259Q38 316 53 365T98 452T173 510T278 532Q339 532 384 511T459 453T503 366T518 259Q518 197 501 147T453 61T377 6T278 -14ZM454 259Q454 305 444 345T413 414T359 461T278 478Q231 478 198 460T143 411T112 341T102 259Q102 211 113 171T147 101T202 56T278 40Q325 40 358 58T413 108T444 178T454 259ZM221 574L332 713H409L272 574H221Z"  />
<glyph unicode="&#xF4;" horiz-adv-x="556" d="M278 -14Q228 -13 185 4T109 55T57 140T38 259Q38 316 53 365T98 452T173 510T278 532Q339 532 384 511T459 453T503 366T518 259Q518 197 501 147T453 61T377 6T278 -14ZM454 259Q454 305 444 345T413 414T359 461T278 478Q231 478 198 460T143 411T112 341T102 259Q102 211 113 171T147 101T202 56T278 40Q325 40 358 58T413 108T444 178T454 259ZM201 574H136L250 713H317L430 574H365L283 676L201 574Z"  />
<glyph unicode="&#xF5;" horiz-adv-x="556" d="M278 -14Q228 -13 185 4T109 55T57 140T38 259Q38 316 53 365T98 452T173 510T278 532Q339 532 384 511T459 453T503 366T518 259Q518 197 501 147T453 61T377 6T278 -14ZM454 259Q454 305 444 345T413 414T359 461T278 478Q231 478 198 460T143 411T112 341T102 259Q102 211 113 171T147 101T202 56T278 40Q325 40 358 58T413 108T444 178T454 259ZM128 586Q130 604 135 618T148 645Q163 666 186 676T236 681Q250 678 266 671T298 657T330 644T359 638Q381 638 390 654T403 688H441Q440 678 438 669T433 650Q422 626 405 608T359 590Q338 590 320 597T283 612T248 628T213 635Q190 635 180 620T164 586H128Z"  />
<glyph unicode="&#xF6;" horiz-adv-x="556" d="M278 -14Q228 -13 185 4T109 55T57 140T38 259Q38 316 53 365T98 452T173 510T278 532Q339 532 384 511T459 453T503 366T518 259Q518 197 501 147T453 61T377 6T278 -14ZM454 259Q454 305 444 345T413 414T359 461T278 478Q231 478 198 460T143 411T112 341T102 259Q102 211 113 171T147 101T202 56T278 40Q325 40 358 58T413 108T444 178T454 259ZM172 686H237V584H172V686ZM331 686H396V584H331V686Z"  />
<glyph unicode="&#xF7;" horiz-adv-x="660" d="M80 280H580V220H80V280ZM294 412V500H367V412H294ZM294 0V88H367V0H294Z"  />
<glyph unicode="&#xF8;" horiz-adv-x="556" d="M71 -23L35 6L93 74Q65 111 53 158T40 258Q40 315 55 364T100 451T175 510T280 532Q328 532 366 519T434 479L486 541L521 510L466 445Q493 409 506 361T520 258Q520 198 504 148T458 62T382 6T280 -14Q224 -14 186 3T125 41L71 -23ZM162 85Q185 62 216 51T280 40Q327 40 360 58T415 107T446 177T456 258Q456 296 450 332T425 397L162 85ZM395 433Q381 449 353 463T280 478Q233 478 200 460T145 410T114 340T104 258Q104 211 113 178T135 124L395 433Z"  />
<glyph unicode="&#xF9;" horiz-adv-x="556" d="M423 518H483V0H423V72Q411 58 396 43T362 16T316 -5T256 -14Q204 -14 169 0T113 41T82 101T72 177V518H132V178Q132 111 163 76T265 40Q302 40 331 54T381 95T412 157T423 236V518ZM157 713H235L346 574H295L157 713Z"  />
<glyph unicode="&#xFA;" horiz-adv-x="556" d="M423 518H483V0H423V72Q411 58 396 43T362 16T316 -5T256 -14Q204 -14 169 0T113 41T82 101T72 177V518H132V178Q132 111 163 76T265 40Q302 40 331 54T381 95T412 157T423 236V518ZM221 574L332 713H409L272 574H221Z"  />
<glyph unicode="&#xFB;" horiz-adv-x="556" d="M423 518H483V0H423V72Q411 58 396 43T362 16T316 -5T256 -14Q204 -14 169 0T113 41T82 101T72 177V518H132V178Q132 111 163 76T265 40Q302 40 331 54T381 95T412 157T423 236V518ZM201 574H136L250 713H317L430 574H365L283 676L201 574Z"  />
<glyph unicode="&#xFC;" horiz-adv-x="556" d="M423 518H483V0H423V72Q411 58 396 43T362 16T316 -5T256 -14Q204 -14 169 0T113 41T82 101T72 177V518H132V178Q132 111 163 76T265 40Q302 40 331 54T381 95T412 157T423 236V518ZM331 686H396V584H331V686ZM172 686H237V584H172V686Z"  />
<glyph unicode="&#xFD;" horiz-adv-x="500" d="M68 -141Q80 -143 92 -145T118 -147Q143 -147 159 -131T185 -93T203 -46T219 -4L18 518H85L251 73L417 518H482L289 7Q271 -42 255 -81T220 -147T179 -189T125 -204Q109 -204 95 -202T68 -197V-141ZM193 574L304 713H381L244 574H193Z"  />
<glyph unicode="&#xFE;" horiz-adv-x="611" d="M139 -204H79V720H139V427H141Q154 452 174 472T219 505T270 525T321 532Q384 532 428 511T500 454T542 367T555 260Q555 206 541 156T499 69T427 9T324 -14Q269 -14 219 10T139 83V-204ZM139 257Q139 213 151 174T185 105T240 58T314 40Q360 40 394 58T451 109T483 183T491 275Q491 324 478 361T440 425T384 464T314 478Q272 478 239 461T184 415T151 345T139 257Z"  />
<glyph unicode="&#xFF;" horiz-adv-x="500" d="M68 -141Q80 -143 92 -145T118 -147Q143 -147 159 -131T185 -93T203 -46T219 -4L18 518H85L251 73L417 518H482L289 7Q271 -42 255 -81T220 -147T179 -189T125 -204Q109 -204 95 -202T68 -197V-141ZM303 686H368V584H303V686ZM144 686H209V584H144V686Z"  />
<glyph unicode="&#x100;" horiz-adv-x="667" d="M15 0L298 720H375L651 0H581L498 226H170L85 0H15ZM193 284H475L334 662L193 284ZM185 859H481V814H185V859Z"  />
<glyph unicode="&#x101;" horiz-adv-x="556" d="M310 302Q327 304 350 308T389 319Q404 326 407 342T411 373Q411 419 382 448T282 478Q251 478 225 473T180 454T148 418T131 361H70Q73 407 91 439T137 492T203 522T283 532Q322 532 356 524T416 497T456 447T471 371V89Q471 54 483 45T534 49V2Q527 0 514 -4T487 -8Q473 -8 460 -5Q445 -3 436 4T422 22T414 45T412 72Q374 30 325 8T219 -14Q185 -14 154 -5T98 23T60 69T46 135Q46 267 227 291L310 302ZM411 272Q373 256 334 251T256 243Q187 238 149 212T110 133Q110 109 119 92T144 63T180 46T222 40Q258 40 292 49T352 76T395 123T411 191V272ZM143 657H439V612H143V657Z"  />
<glyph unicode="&#x102;" horiz-adv-x="667" d="M15 0L298 720H375L651 0H581L498 226H170L85 0H15ZM193 284H475L334 662L193 284ZM229 908Q237 866 264 847T334 827Q376 827 403 846T441 908H478Q471 845 431 814T329 782Q269 782 232 815T190 908H229Z"  />
<glyph unicode="&#x103;" horiz-adv-x="556" d="M310 302Q327 304 350 308T389 319Q404 326 407 342T411 373Q411 419 382 448T282 478Q251 478 225 473T180 454T148 418T131 361H70Q73 407 91 439T137 492T203 522T283 532Q322 532 356 524T416 497T456 447T471 371V89Q471 54 483 45T534 49V2Q527 0 514 -4T487 -8Q473 -8 460 -5Q445 -3 436 4T422 22T414 45T412 72Q374 30 325 8T219 -14Q185 -14 154 -5T98 23T60 69T46 135Q46 267 227 291L310 302ZM411 272Q373 256 334 251T256 243Q187 238 149 212T110 133Q110 109 119 92T144 63T180 46T222 40Q258 40 292 49T352 76T395 123T411 191V272ZM187 706Q195 664 222 645T292 625Q334 625 361 644T399 706H436Q429 643 389 612T287 580Q227 580 190 613T148 706H187Z"  />
<glyph unicode="&#x104;" horiz-adv-x="667" d="M15 0L298 720H375L651 0H633Q621 -6 607 -14T581 -34T561 -59T553 -87Q553 -116 573 -130T620 -144Q641 -144 662 -135V-179Q636 -188 610 -188Q590 -188 572 -183T540 -166T517 -139T508 -101Q508 -66 529 -40T580 1L498 226H170L85 0H15ZM193 284H475L334 662L193 284Z"  />
<glyph unicode="&#x105;" horiz-adv-x="556" d="M310 302Q327 304 350 308T389 319Q404 326 407 342T411 373Q411 419 382 448T282 478Q251 478 225 473T180 454T148 418T131 361H70Q73 407 91 439T137 492T203 522T283 532Q322 532 356 524T416 497T456 447T471 371V89Q471 54 483 45T534 49V2Q527 0 514 -4T487 -8H484Q461 -21 441 -41T420 -87Q420 -116 440 -130T487 -144Q508 -144 529 -135V-179Q503 -188 477 -188Q457 -188 439 -183T407 -166T384 -139T375 -101Q375 -67 395 -42T444 0Q424 8 419 28T412 72Q374 30 325 8T219 -14Q185 -14 154 -5T98 23T60 69T46 135Q46 267 227 291L310 302ZM411 272Q373 256 334 251T256 243Q187 238 149 212T110 133Q110 109 119 92T144 63T180 46T222 40Q258 40 292 49T352 76T395 123T411 191V272Z"  />
<glyph unicode="&#x106;" horiz-adv-x="722" d="M592 511Q571 603 514 642T365 681Q300 681 253 655T176 585T131 484T116 362Q116 302 128 244T170 141T248 67T371 39Q417 39 455 54T521 95T569 158T599 237H670Q658 185 635 139T575 57T484 2T358 -19Q275 -19 216 11T120 94T65 214T48 360Q48 463 73 535T144 652T250 718T383 739Q438 739 485 725T569 681T629 610T662 511H592ZM289 776L400 915H477L340 776H289Z"  />
<glyph unicode="&#x107;" horiz-adv-x="556" d="M439 355Q423 413 384 445T285 478Q239 478 206 459T152 409T121 338T111 258Q111 217 120 178T151 108T205 59T285 40Q352 40 392 77T444 179H508Q500 136 483 101T438 40T372 0T285 -14Q223 -14 178 7T104 64T61 151T47 258Q47 312 62 361T108 449T182 509T285 532Q375 532 430 489T500 355H439ZM223 574L334 713H411L274 574H223Z"  />
<glyph unicode="&#x108;" horiz-adv-x="722" d="M592 511Q571 603 514 642T365 681Q300 681 253 655T176 585T131 484T116 362Q116 302 128 244T170 141T248 67T371 39Q417 39 455 54T521 95T569 158T599 237H670Q658 185 635 139T575 57T484 2T358 -19Q275 -19 216 11T120 94T65 214T48 360Q48 463 73 535T144 652T250 718T383 739Q438 739 485 725T569 681T629 610T662 511H592ZM276 776H211L325 915H392L505 776H440L358 878L276 776Z"  />
<glyph unicode="&#x109;" horiz-adv-x="556" d="M439 355Q423 413 384 445T285 478Q239 478 206 459T152 409T121 338T111 258Q111 217 120 178T151 108T205 59T285 40Q352 40 392 77T444 179H508Q500 136 483 101T438 40T372 0T285 -14Q223 -14 178 7T104 64T61 151T47 258Q47 312 62 361T108 449T182 509T285 532Q375 532 430 489T500 355H439ZM197 574H132L246 713H313L426 574H361L279 676L197 574Z"  />
<glyph unicode="&#x10A;" horiz-adv-x="722" d="M592 511Q571 603 514 642T365 681Q300 681 253 655T176 585T131 484T116 362Q116 302 128 244T170 141T248 67T371 39Q417 39 455 54T521 95T569 158T599 237H670Q658 185 635 139T575 57T484 2T358 -19Q275 -19 216 11T120 94T65 214T48 360Q48 463 73 535T144 652T250 718T383 739Q438 739 485 725T569 681T629 610T662 511H592ZM326 888H391V786H326V888Z"  />
<glyph unicode="&#x10B;" horiz-adv-x="556" d="M439 355Q423 413 384 445T285 478Q239 478 206 459T152 409T121 338T111 258Q111 217 120 178T151 108T205 59T285 40Q352 40 392 77T444 179H508Q500 136 483 101T438 40T372 0T285 -14Q223 -14 178 7T104 64T61 151T47 258Q47 312 62 361T108 449T182 509T285 532Q375 532 430 489T500 355H439ZM244 686H309V584H244V686Z"  />
<glyph unicode="&#x10C;" horiz-adv-x="722" d="M592 511Q571 603 514 642T365 681Q300 681 253 655T176 585T131 484T116 362Q116 302 128 244T170 141T248 67T371 39Q417 39 455 54T521 95T569 158T599 237H670Q658 185 635 139T575 57T484 2T358 -19Q275 -19 216 11T120 94T65 214T48 360Q48 463 73 535T144 652T250 718T383 739Q438 739 485 725T569 681T629 610T662 511H592ZM440 915H505L392 776H325L211 915H276L358 813L440 915Z"  />
<glyph unicode="&#x10D;" horiz-adv-x="556" d="M439 355Q423 413 384 445T285 478Q239 478 206 459T152 409T121 338T111 258Q111 217 120 178T151 108T205 59T285 40Q352 40 392 77T444 179H508Q500 136 483 101T438 40T372 0T285 -14Q223 -14 178 7T104 64T61 151T47 258Q47 312 62 361T108 449T182 509T285 532Q375 532 430 489T500 355H439ZM361 713H426L313 574H246L132 713H197L279 611L361 713Z"  />
<glyph unicode="&#x10E;" horiz-adv-x="722" d="M81 0V720H327Q357 720 386 719T443 712T497 695T549 666Q585 640 608 603T644 524T663 440T669 361Q669 325 665 288T650 216T624 148T582 88Q557 60 528 43T466 17T398 4T327 0H81ZM149 58H312Q358 58 398 63T481 91Q517 109 540 140T576 207T595 284T601 361Q601 400 596 440T577 517T539 584T477 635Q445 652 401 657T312 662H149V58ZM393 915H458L345 776H278L164 915H229L311 813L393 915Z"  />
<glyph unicode="&#x10F;" horiz-adv-x="611" d="M472 720H532V0H472V91H470Q457 65 437 46T392 13T341 -7T290 -14Q227 -14 183 7T111 64T69 151T56 258Q56 312 70 362T112 449T184 509T287 532Q342 532 392 508T472 435V720ZM472 261Q472 305 460 344T426 413T371 460T297 478Q250 478 216 460T160 409T128 335T120 243Q120 194 133 157T171 93T227 54T297 40Q339 40 372 57T427 103T460 173T472 261ZM583 662V720H651V666Q651 631 636 606T583 581V608Q619 608 619 662H583Z"  />
<glyph unicode="&#x110;" horiz-adv-x="722" d="M81 720H327Q357 720 386 719T443 712T497 695T549 666Q585 640 608 603T644 524T663 440T669 361Q669 325 665 288T650 216T624 148T582 88Q557 60 528 43T466 17T398 4T327 0H81V353H10V411H81V720ZM149 411H310V353H149V58H312Q358 58 398 63T481 91Q517 109 540 140T576 207T595 284T601 361Q601 400 596 440T577 517T539 584T477 635Q445 652 401 657T312 662H149V411Z"  />
<glyph unicode="&#x111;" horiz-adv-x="611" d="M297 637H472V720H532V637H593V592H532V0H472V91H470Q457 65 437 46T392 13T341 -7T290 -14Q227 -14 183 7T111 64T69 151T56 258Q56 312 70 362T112 449T184 509T287 532Q342 532 392 508T472 435V592H297V637ZM472 261Q472 305 460 344T426 413T371 460T297 478Q250 478 216 460T160 409T128 335T120 243Q120 194 133 157T171 93T227 54T297 40Q339 40 372 57T427 103T460 173T472 261Z"  />
<glyph unicode="&#x112;" horiz-adv-x="611" d="M81 0V720H560V662H149V402H520V344H149V58H570V0H81ZM169 859H465V814H169V859Z"  />
<glyph unicode="&#x113;" horiz-adv-x="556" d="M109 245Q109 203 120 166T152 101T207 57T283 40Q342 40 384 71T440 159H507Q496 122 478 91T433 36T369 -1T283 -14Q221 -14 176 7T102 64T59 150T45 257Q45 314 61 364T108 451T183 510T283 532Q390 532 451 459T511 245H109ZM447 295Q447 333 437 366T406 424T354 463T283 478Q243 478 213 463T161 423T126 365T109 295H447ZM130 657H426V612H130V657Z"  />
<glyph unicode="&#x114;" horiz-adv-x="611" d="M81 0V720H560V662H149V402H520V344H149V58H570V0H81ZM213 908Q221 866 248 847T318 827Q360 827 387 846T425 908H462Q455 845 415 814T313 782Q253 782 216 815T174 908H213Z"  />
<glyph unicode="&#x115;" horiz-adv-x="556" d="M109 245Q109 203 120 166T152 101T207 57T283 40Q342 40 384 71T440 159H507Q496 122 478 91T433 36T369 -1T283 -14Q221 -14 176 7T102 64T59 150T45 257Q45 314 61 364T108 451T183 510T283 532Q390 532 451 459T511 245H109ZM447 295Q447 333 437 366T406 424T354 463T283 478Q243 478 213 463T161 423T126 365T109 295H447ZM174 706Q182 664 209 645T279 625Q321 625 348 644T386 706H423Q416 643 376 612T274 580Q214 580 177 613T135 706H174Z"  />
<glyph unicode="&#x116;" horiz-adv-x="611" d="M81 0V720H560V662H149V402H520V344H149V58H570V0H81ZM294 888H359V786H294V888Z"  />
<glyph unicode="&#x117;" horiz-adv-x="556" d="M109 245Q109 203 120 166T152 101T207 57T283 40Q342 40 384 71T440 159H507Q496 122 478 91T433 36T369 -1T283 -14Q221 -14 176 7T102 64T59 150T45 257Q45 314 61 364T108 451T183 510T283 532Q390 532 451 459T511 245H109ZM447 295Q447 333 437 366T406 424T354 463T283 478Q243 478 213 463T161 423T126 365T109 295H447ZM241 686H306V584H241V686Z"  />
<glyph unicode="&#x118;" horiz-adv-x="611" d="M514 0Q502 -6 488 -14T462 -34T442 -59T434 -87Q434 -116 454 -130T501 -144Q522 -144 543 -135V-179Q517 -188 491 -188Q471 -188 453 -183T421 -166T398 -139T389 -101Q389 -66 410 -41T460 0H81V720H560V662H149V402H520V344H149V58H570V0H514Z"  />
<glyph unicode="&#x119;" horiz-adv-x="556" d="M109 245Q109 203 120 166T152 101T207 57T283 40Q342 40 384 71T440 159H507Q487 93 445 46T324 -11Q302 -25 284 -44T265 -87Q265 -116 285 -130T332 -144Q353 -144 374 -135V-179Q348 -188 322 -188Q302 -188 284 -183T252 -166T229 -139T220 -101Q220 -73 234 -52T269 -14Q210 -12 168 10T99 68T58 152T45 257Q45 314 61 364T108 451T183 510T283 532Q390 532 451 459T511 245H109ZM447 295Q447 333 437 366T406 424T354 463T283 478Q243 478 213 463T161 423T126 365T109 295H447Z"  />
<glyph unicode="&#x11A;" horiz-adv-x="611" d="M81 0V720H560V662H149V402H520V344H149V58H570V0H81ZM399 915H464L351 776H284L170 915H235L317 813L399 915Z"  />
<glyph unicode="&#x11B;" horiz-adv-x="556" d="M109 245Q109 203 120 166T152 101T207 57T283 40Q342 40 384 71T440 159H507Q496 122 478 91T433 36T369 -1T283 -14Q221 -14 176 7T102 64T59 150T45 257Q45 314 61 364T108 451T183 510T283 532Q390 532 451 459T511 245H109ZM447 295Q447 333 437 366T406 424T354 463T283 478Q243 478 213 463T161 423T126 365T109 295H447ZM360 713H425L312 574H245L131 713H196L278 611L360 713Z"  />
<glyph unicode="&#x11C;" horiz-adv-x="778" d="M387 314V372H695V0H637V123Q618 91 594 65T537 20T463 -9T368 -19Q300 -19 242 5T142 76T77 196T53 364Q53 443 73 511T134 630T238 710T386 739Q443 739 492 725T581 683T648 612T687 511H617Q608 551 587 583T535 636T468 669T391 681Q320 681 269 656T185 586T137 477T121 337Q121 277 138 223T189 128T271 63T382 39Q411 39 442 45T502 67T556 106T599 165Q616 199 622 236T630 314H387ZM294 776H229L343 915H410L523 776H458L376 878L294 776Z"  />
<glyph unicode="&#x11D;" horiz-adv-x="611" d="M472 518H532V50Q532 -2 522 -49T484 -133T410 -190T289 -212Q232 -212 191 -198T124 -161T85 -113T70 -63H134Q141 -92 156 -110T191 -139T237 -154T289 -158Q350 -158 387 -137T443 -82T467 -5T472 83Q443 35 393 11T287 -14Q228 -14 185 8T113 68T70 156T56 260Q56 317 69 367T110 453T183 511T290 532Q315 532 341 525T391 505T436 472T470 427H472V518ZM472 257Q472 304 461 344T427 414T372 461T297 478Q259 478 227 465T171 425T134 362T120 275Q118 226 128 184T160 109T216 59T297 40Q338 40 370 57T425 104T460 173T472 257ZM224 574H159L273 713H340L453 574H388L306 676L224 574Z"  />
<glyph unicode="&#x11E;" horiz-adv-x="778" d="M387 314V372H695V0H637V123Q618 91 594 65T537 20T463 -9T368 -19Q300 -19 242 5T142 76T77 196T53 364Q53 443 73 511T134 630T238 710T386 739Q443 739 492 725T581 683T648 612T687 511H617Q608 551 587 583T535 636T468 669T391 681Q320 681 269 656T185 586T137 477T121 337Q121 277 138 223T189 128T271 63T382 39Q411 39 442 45T502 67T556 106T599 165Q616 199 622 236T630 314H387ZM272 908Q280 866 307 847T377 827Q419 827 446 846T484 908H521Q514 845 474 814T372 782Q312 782 275 815T233 908H272Z"  />
<glyph unicode="&#x11F;" horiz-adv-x="611" d="M472 518H532V50Q532 -2 522 -49T484 -133T410 -190T289 -212Q232 -212 191 -198T124 -161T85 -113T70 -63H134Q141 -92 156 -110T191 -139T237 -154T289 -158Q350 -158 387 -137T443 -82T467 -5T472 83Q443 35 393 11T287 -14Q228 -14 185 8T113 68T70 156T56 260Q56 317 69 367T110 453T183 511T290 532Q315 532 341 525T391 505T436 472T470 427H472V518ZM472 257Q472 304 461 344T427 414T372 461T297 478Q259 478 227 465T171 425T134 362T120 275Q118 226 128 184T160 109T216 59T297 40Q338 40 370 57T425 104T460 173T472 257ZM208 706Q216 664 243 645T313 625Q355 625 382 644T420 706H457Q450 643 410 612T308 580Q248 580 211 613T169 706H208Z"  />
<glyph unicode="&#x120;" horiz-adv-x="778" d="M387 314V372H695V0H637V123Q618 91 594 65T537 20T463 -9T368 -19Q300 -19 242 5T142 76T77 196T53 364Q53 443 73 511T134 630T238 710T386 739Q443 739 492 725T581 683T648 612T687 511H617Q608 551 587 583T535 636T468 669T391 681Q320 681 269 656T185 586T137 477T121 337Q121 277 138 223T189 128T271 63T382 39Q411 39 442 45T502 67T556 106T599 165Q616 199 622 236T630 314H387ZM338 888H403V786H338V888Z"  />
<glyph unicode="&#x121;" horiz-adv-x="611" d="M472 518H532V50Q532 -2 522 -49T484 -133T410 -190T289 -212Q232 -212 191 -198T124 -161T85 -113T70 -63H134Q141 -92 156 -110T191 -139T237 -154T289 -158Q350 -158 387 -137T443 -82T467 -5T472 83Q443 35 393 11T287 -14Q228 -14 185 8T113 68T70 156T56 260Q56 317 69 367T110 453T183 511T290 532Q315 532 341 525T391 505T436 472T470 427H472V518ZM472 257Q472 304 461 344T427 414T372 461T297 478Q259 478 227 465T171 425T134 362T120 275Q118 226 128 184T160 109T216 59T297 40Q338 40 370 57T425 104T460 173T472 257ZM276 686H341V584H276V686Z"  />
<glyph unicode="&#x122;" horiz-adv-x="778" d="M387 314V372H695V0H637V123Q618 91 594 65T537 20T463 -9T368 -19Q300 -19 242 5T142 76T77 196T53 364Q53 443 73 511T134 630T238 710T386 739Q443 739 492 725T581 683T648 612T687 511H617Q608 551 587 583T535 636T468 669T391 681Q320 681 269 656T185 586T137 477T121 337Q121 277 138 223T189 128T271 63T382 39Q411 39 442 45T502 67T556 106T599 165Q616 199 622 236T630 314H387ZM339 -98V-40H407V-94Q407 -129 392 -154T339 -179V-152Q375 -152 375 -98H339Z"  />
<glyph unicode="&#x123;" horiz-adv-x="611" d="M472 518H532V50Q532 -2 522 -49T484 -133T410 -190T289 -212Q232 -212 191 -198T124 -161T85 -113T70 -63H134Q141 -92 156 -110T191 -139T237 -154T289 -158Q350 -158 387 -137T443 -82T467 -5T472 83Q443 35 393 11T287 -14Q228 -14 185 8T113 68T70 156T56 260Q56 317 69 367T110 453T183 511T290 532Q315 532 341 525T391 505T436 472T470 427H472V518ZM472 257Q472 304 461 344T427 414T372 461T297 478Q259 478 227 465T171 425T134 362T120 275Q118 226 128 184T160 109T216 59T297 40Q338 40 370 57T425 104T460 173T472 257ZM334 632V574H266V628Q266 663 281 688T334 713V686Q298 686 298 632H334Z"  />
<glyph unicode="&#x124;" horiz-adv-x="722" d="M80 0V720H148V411H574V720H642V0H574V353H148V0H80ZM278 776H213L327 915H394L507 776H442L360 878L278 776Z"  />
<glyph unicode="&#x125;" horiz-adv-x="556" d="M72 0V720H132V446Q168 484 206 508T299 532Q347 532 388 516T457 458Q476 430 479 401T483 339V0H423V338Q423 408 392 443T289 478Q261 478 238 470T197 447T165 415T145 377Q136 352 134 329T132 279V0H72ZM196 758H131L245 897H312L425 758H360L278 860L196 758Z"  />
<glyph unicode="&#x126;" horiz-adv-x="722" d="M80 0V720H148V603H574V720H642V0H574V353H148V0H80ZM574 411V545H148V411H574Z"  />
<glyph unicode="&#x127;" horiz-adv-x="556" d="M12 638H72V720H132V638H289V593H132V446Q168 484 206 508T299 532Q347 532 388 516T457 458Q476 430 479 401T483 339V0H423V338Q423 408 392 443T289 478Q261 478 238 470T197 447T165 415T145 377Q136 352 134 329T132 279V0H72V593H12V638Z"  />
<glyph unicode="&#x128;" horiz-adv-x="278" d="M105 0V720H173V0H105ZM-15 788Q-13 806 -8 820T5 847Q20 868 43 878T93 883Q107 880 123 873T155 859T187 846T216 840Q238 840 247 856T260 890H298Q297 880 295 871T290 852Q279 828 262 810T216 792Q195 792 177 799T140 814T105 830T70 837Q47 837 37 822T21 788H-15Z"  />
<glyph unicode="&#x129;" horiz-adv-x="222" d="M78 0V518H138V0H78ZM-45 586Q-43 604 -38 618T-25 645Q-10 666 13 676T63 681Q77 678 93 671T125 657T157 644T186 638Q208 638 217 654T230 688H268Q267 678 265 669T260 650Q249 626 232 608T186 590Q165 590 147 597T110 612T75 628T40 635Q17 635 7 620T-9 586H-45Z"  />
<glyph unicode="&#x12A;" horiz-adv-x="278" d="M105 0V720H173V0H105ZM-8 859H288V814H-8V859Z"  />
<glyph unicode="&#x12B;" horiz-adv-x="222" d="M78 0V518H138V0H78ZM-39 657H257V612H-39V657Z"  />
<glyph unicode="&#x12E;" horiz-adv-x="278" d="M158 0Q146 -6 132 -14T106 -34T86 -59T78 -87Q78 -116 98 -130T145 -144Q166 -144 187 -135V-179Q161 -188 135 -188Q115 -188 97 -183T65 -166T42 -139T33 -101Q33 -66 54 -41T105 0V720H173V0H158Z"  />
<glyph unicode="&#x12F;" horiz-adv-x="222" d="M135 0Q123 -6 109 -14T83 -34T63 -59T55 -87Q55 -116 75 -130T122 -144Q143 -144 164 -135V-179Q138 -188 112 -188Q92 -188 74 -183T42 -166T19 -139T10 -101Q10 -66 31 -41T81 0V518H141V0H135ZM78 631V720H144V631H78Z"  />
<glyph unicode="&#x130;" horiz-adv-x="278" d="M105 0V720H173V0H105ZM107 888H172V786H107V888Z"  />
<glyph unicode="&#x131;" horiz-adv-x="222" d="M78 0V518H138V0H78Z"  />
<glyph unicode="&#x132;" horiz-adv-x="752" d="M105 0V720H173V0H105ZM342 228Q342 194 344 161T359 102T398 59T472 43Q542 43 570 83T599 199V720H667V197Q667 92 618 37T464 -19Q403 -19 366 1T309 56T281 135T274 228H342Z"  />
<glyph unicode="&#x133;" horiz-adv-x="422" d="M81 0V518H141V0H81ZM78 631V720H144V631H78ZM348 518V-69Q348 -102 345 -127T332 -169T301 -195T244 -204Q222 -204 205 -200V-147Q231 -150 247 -148T272 -136T284 -112T288 -77V518H348ZM351 631H285V720H351V631Z"  />
<glyph unicode="&#x134;" horiz-adv-x="500" d="M90 228Q90 194 92 161T107 102T146 59T220 43Q290 43 318 83T347 199V720H415V197Q415 92 366 37T212 -19Q151 -19 114 1T57 56T29 135T22 228H90ZM293 776H228L342 915H409L522 776H457L375 878L293 776Z"  />
<glyph unicode="&#x135;" horiz-adv-x="222" d="M148 518V-69Q148 -102 145 -127T132 -169T101 -195T44 -204Q22 -204 5 -200V-147Q31 -150 47 -148T72 -136T84 -112T88 -77V518H148ZM38 574H-27L87 713H154L267 574H202L120 676L38 574Z"  />
<glyph unicode="&#x136;" horiz-adv-x="667" d="M85 0V720H153V347L522 720H599L315 433L649 0H566L266 391L153 278V0H85ZM284 -98V-40H352V-94Q352 -129 337 -154T284 -179V-152Q320 -152 320 -98H284Z"  />
<glyph unicode="&#x137;" horiz-adv-x="500" d="M68 0V720H128V272L382 518H464L270 331L487 0H420L226 289L128 196V0H68ZM221 -98V-40H289V-94Q289 -129 274 -154T221 -179V-152Q257 -152 257 -98H221Z"  />
<glyph unicode="&#x139;" horiz-adv-x="556" d="M81 0V720H149V58H535V0H81ZM70 776L181 915H258L121 776H70Z"  />
<glyph unicode="&#x13A;" horiz-adv-x="222" d="M81 0V720H141V0H81ZM51 735L162 874H239L102 735H51Z"  />
<glyph unicode="&#x13B;" horiz-adv-x="556" d="M81 0V720H149V58H535V0H81ZM264 -98V-40H332V-94Q332 -129 317 -154T264 -179V-152Q300 -152 300 -98H264Z"  />
<glyph unicode="&#x13C;" horiz-adv-x="222" d="M81 0V720H141V0H81ZM77 -98V-40H145V-94Q145 -129 130 -154T77 -179V-152Q113 -152 113 -98H77Z"  />
<glyph unicode="&#x13D;" horiz-adv-x="556" d="M81 0V720H149V58H535V0H81ZM301 662V720H369V666Q369 631 354 606T301 581V608Q337 608 337 662H301Z"  />
<glyph unicode="&#x13E;" horiz-adv-x="222" d="M81 0V720H141V0H81ZM185 662V720H253V666Q253 631 238 606T185 581V608Q221 608 221 662H185Z"  />
<glyph unicode="&#x13F;" horiz-adv-x="556" d="M81 0V720H149V58H535V0H81ZM355 428H420V326H355V428Z"  />
<glyph unicode="&#x140;" horiz-adv-x="311" d="M81 0V720H141V0H81ZM224 428H289V326H224V428Z"  />
<glyph unicode="&#x141;" horiz-adv-x="556" d="M81 0V360L0 320V380L81 420V720H149V470L230 510V450L149 410V58H535V0H81Z"  />
<glyph unicode="&#x142;" horiz-adv-x="222" d="M81 0V340L10 300V360L81 400V720H141V450L212 490V430L141 390V0H81Z"  />
<glyph unicode="&#x143;" horiz-adv-x="722" d="M149 628H147V0H79V720H156L572 91H574V720H642V0H563L149 628ZM303 776L414 915H491L354 776H303Z"  />
<glyph unicode="&#x144;" horiz-adv-x="556" d="M132 0H72V518H132V446Q168 484 206 508T299 532Q347 532 388 516T457 458Q476 430 479 401T483 339V0H423V338Q423 408 392 443T289 478Q261 478 238 470T197 447T165 415T145 377Q136 352 134 329T132 279V0ZM220 574L331 713H408L271 574H220Z"  />
<glyph unicode="&#x145;" horiz-adv-x="722" d="M149 628H147V0H79V720H156L572 91H574V720H642V0H563L149 628ZM327 -98V-40H395V-94Q395 -129 380 -154T327 -179V-152Q363 -152 363 -98H327Z"  />
<glyph unicode="&#x146;" horiz-adv-x="556" d="M132 0H72V518H132V446Q168 484 206 508T299 532Q347 532 388 516T457 458Q476 430 479 401T483 339V0H423V338Q423 408 392 443T289 478Q261 478 238 470T197 447T165 415T145 377Q136 352 134 329T132 279V0ZM239 -98V-40H307V-94Q307 -129 292 -154T239 -179V-152Q275 -152 275 -98H239Z"  />
<glyph unicode="&#x147;" horiz-adv-x="722" d="M149 628H147V0H79V720H156L572 91H574V720H642V0H563L149 628ZM442 915H507L394 776H327L213 915H278L360 813L442 915Z"  />
<glyph unicode="&#x148;" horiz-adv-x="556" d="M132 0H72V518H132V446Q168 484 206 508T299 532Q347 532 388 516T457 458Q476 430 479 401T483 339V0H423V338Q423 408 392 443T289 478Q261 478 238 470T197 447T165 415T145 377Q136 352 134 329T132 279V0ZM361 713H426L313 574H246L132 713H197L279 611L361 713Z"  />
<glyph unicode="&#x149;" horiz-adv-x="556" d="M132 0H72V518H132V446Q168 484 206 508T299 532Q347 532 388 516T457 458Q476 430 479 401T483 339V0H423V338Q423 408 392 443T289 478Q261 478 238 470T197 447T165 415T145 377Q136 352 134 329T132 279V0ZM2 662V720H70V666Q70 631 55 606T2 581V608Q38 608 38 662H2Z"  />
<glyph unicode="&#x14C;" horiz-adv-x="778" d="M53 359Q53 438 74 507T138 627T242 709T385 739Q469 739 532 710T638 629T702 508T724 359Q724 281 703 213T639 93T534 11T388 -19Q305 -19 242 11T137 92T74 212T53 359ZM389 39Q459 39 509 65T592 136T640 238T656 359Q656 434 638 493T584 595T499 659T387 681Q318 681 268 654T185 583T137 480T121 359Q121 295 136 237T184 135T267 65T389 39ZM241 859H537V814H241V859Z"  />
<glyph unicode="&#x14D;" horiz-adv-x="556" d="M278 -14Q228 -13 185 4T109 55T57 140T38 259Q38 316 53 365T98 452T173 510T278 532Q339 532 384 511T459 453T503 366T518 259Q518 197 501 147T453 61T377 6T278 -14ZM454 259Q454 305 444 345T413 414T359 461T278 478Q231 478 198 460T143 411T112 341T102 259Q102 211 113 171T147 101T202 56T278 40Q325 40 358 58T413 108T444 178T454 259ZM131 657H427V612H131V657Z"  />
<glyph unicode="&#x14E;" horiz-adv-x="778" d="M53 359Q53 438 74 507T138 627T242 709T385 739Q469 739 532 710T638 629T702 508T724 359Q724 281 703 213T639 93T534 11T388 -19Q305 -19 242 11T137 92T74 212T53 359ZM389 39Q459 39 509 65T592 136T640 238T656 359Q656 434 638 493T584 595T499 659T387 681Q318 681 268 654T185 583T137 480T121 359Q121 295 136 237T184 135T267 65T389 39ZM282 908Q290 866 317 847T387 827Q429 827 456 846T494 908H531Q524 845 484 814T382 782Q322 782 285 815T243 908H282Z"  />
<glyph unicode="&#x14F;" horiz-adv-x="556" d="M278 -14Q228 -13 185 4T109 55T57 140T38 259Q38 316 53 365T98 452T173 510T278 532Q339 532 384 511T459 453T503 366T518 259Q518 197 501 147T453 61T377 6T278 -14ZM454 259Q454 305 444 345T413 414T359 461T278 478Q231 478 198 460T143 411T112 341T102 259Q102 211 113 171T147 101T202 56T278 40Q325 40 358 58T413 108T444 178T454 259ZM174 706Q182 664 209 645T279 625Q321 625 348 644T386 706H423Q416 643 376 612T274 580Q214 580 177 613T135 706H174Z"  />
<glyph unicode="&#x150;" horiz-adv-x="778" d="M53 359Q53 438 74 507T138 627T242 709T385 739Q469 739 532 710T638 629T702 508T724 359Q724 281 703 213T639 93T534 11T388 -19Q305 -19 242 11T137 92T74 212T53 359ZM389 39Q459 39 509 65T592 136T640 238T656 359Q656 434 638 493T584 595T499 659T387 681Q318 681 268 654T185 583T137 480T121 359Q121 295 136 237T184 135T267 65T389 39ZM273 776L384 915H461L324 776H273ZM435 776L546 915H623L486 776H435Z"  />
<glyph unicode="&#x151;" horiz-adv-x="556" d="M278 -14Q228 -13 185 4T109 55T57 140T38 259Q38 316 53 365T98 452T173 510T278 532Q339 532 384 511T459 453T503 366T518 259Q518 197 501 147T453 61T377 6T278 -14ZM454 259Q454 305 444 345T413 414T359 461T278 478Q231 478 198 460T143 411T112 341T102 259Q102 211 113 171T147 101T202 56T278 40Q325 40 358 58T413 108T444 178T454 259ZM168 574L279 713H356L219 574H168ZM330 574L441 713H518L381 574H330Z"  />
<glyph unicode="&#x152;" horiz-adv-x="1000" d="M550 72Q532 54 512 38T468 9T415 -11T349 -19Q266 -19 208 12T113 96T58 217T41 359Q41 437 58 506T113 627T208 709T346 739Q410 739 462 720T550 644V720H957V662H615V402H935V344H615V58H967V0H550V72ZM547 498Q547 588 494 634T346 681Q232 681 171 601T109 361Q109 290 123 231T167 130T243 63T354 39Q392 39 430 54T498 93Q529 119 538 150T547 221V498Z"  />
<glyph unicode="&#x153;" horiz-adv-x="944" d="M511 245Q508 217 515 182T544 115T600 62T686 40Q743 40 783 73T836 160H897Q879 75 823 31T684 -14Q610 -14 558 22T479 112Q448 49 392 18T267 -14Q215 -14 173 5T100 59T53 145T36 258Q36 315 49 364T92 451T165 510T271 532Q344 532 395 503T479 407Q512 470 562 501T684 532Q752 532 795 508T862 445T895 353T904 245H511ZM100 249Q100 207 110 169T142 103T196 57T272 40Q315 40 347 57T402 104T435 176T447 269Q447 314 436 352T402 419T345 462T266 478Q185 478 141 417T100 249ZM840 295Q840 334 831 367T803 425T753 464T681 478Q643 478 612 464T560 424T526 366T511 295H840Z"  />
<glyph unicode="&#x154;" horiz-adv-x="667" d="M148 327V0H80V720H362Q481 720 544 676T607 531Q607 463 580 423T490 355Q522 344 540 323T567 275T578 218T582 160Q583 119 585 92T591 48T600 22T612 7V0H537Q526 18 522 50T515 117T511 185T505 239Q499 268 486 285T453 312T411 324T362 327H148ZM360 385Q398 385 430 393T487 418T525 463T539 528Q539 568 525 594T486 635T430 656T364 662H148V385H360ZM247 776L358 915H435L298 776H247Z"  />
<glyph unicode="&#x155;" horiz-adv-x="333" d="M135 0H75V518H135V421H137Q162 483 201 507T306 532V467Q255 468 222 451T170 405T143 337T135 254V0ZM110 574L221 713H298L161 574H110Z"  />
<glyph unicode="&#x156;" horiz-adv-x="667" d="M148 327V0H80V720H362Q481 720 544 676T607 531Q607 463 580 423T490 355Q522 344 540 323T567 275T578 218T582 160Q583 119 585 92T591 48T600 22T612 7V0H537Q526 18 522 50T515 117T511 185T505 239Q499 268 486 285T453 312T411 324T362 327H148ZM360 385Q398 385 430 393T487 418T525 463T539 528Q539 568 525 594T486 635T430 656T364 662H148V385H360ZM290 -98V-40H358V-94Q358 -129 343 -154T290 -179V-152Q326 -152 326 -98H290Z"  />
<glyph unicode="&#x157;" horiz-adv-x="333" d="M135 0H75V518H135V421H137Q162 483 201 507T306 532V467Q255 468 222 451T170 405T143 337T135 254V0ZM74 -98V-40H142V-94Q142 -129 127 -154T74 -179V-152Q110 -152 110 -98H74Z"  />
<glyph unicode="&#x158;" horiz-adv-x="667" d="M148 327V0H80V720H362Q481 720 544 676T607 531Q607 463 580 423T490 355Q522 344 540 323T567 275T578 218T582 160Q583 119 585 92T591 48T600 22T612 7V0H537Q526 18 522 50T515 117T511 185T505 239Q499 268 486 285T453 312T411 324T362 327H148ZM360 385Q398 385 430 393T487 418T525 463T539 528Q539 568 525 594T486 635T430 656T364 662H148V385H360ZM401 915H466L353 776H286L172 915H237L319 813L401 915Z"  />
<glyph unicode="&#x159;" horiz-adv-x="333" d="M135 0H75V518H135V421H137Q162 483 201 507T306 532V467Q255 468 222 451T170 405T143 337T135 254V0ZM246 713H311L198 574H131L17 713H82L164 611L246 713Z"  />
<glyph unicode="&#x15A;" horiz-adv-x="611" d="M109 215Q113 167 130 134T175 79T239 49T316 39Q364 39 399 51T456 83T488 131T499 188Q499 230 480 256T431 298T361 325T280 344T199 367T129 402T79 458T60 546Q60 583 75 618T121 680T198 723T304 739Q365 739 410 722T486 676T531 607T546 524H481Q481 565 467 595T427 644T370 672T304 681Q252 681 217 667T160 629T131 578T128 522Q134 487 156 466T210 432T280 410T359 392T436 369T503 334T549 278T567 191Q567 91 498 36T304 -19Q248 -19 200 -5T117 39T63 112T43 215H109ZM236 776L347 915H424L287 776H236Z"  />
<glyph unicode="&#x15B;" horiz-adv-x="500" d="M107 162Q121 95 157 68T262 40Q295 40 319 48T358 69T382 100T390 136Q390 174 366 192T304 221T224 239T144 262T83 305T58 384Q58 449 105 490T240 532Q324 532 376 495T440 369H379Q371 429 334 453T239 478Q182 478 152 454T122 389Q122 354 146 336T208 306T288 285T368 260T429 215T454 137Q454 100 438 72T394 24T328 -4T243 -14Q197 -14 162 -1T101 37T62 93T46 162H107ZM182 574L293 713H370L233 574H182Z"  />
<glyph unicode="&#x15C;" horiz-adv-x="611" d="M109 215Q113 167 130 134T175 79T239 49T316 39Q364 39 399 51T456 83T488 131T499 188Q499 230 480 256T431 298T361 325T280 344T199 367T129 402T79 458T60 546Q60 583 75 618T121 680T198 723T304 739Q365 739 410 722T486 676T531 607T546 524H481Q481 565 467 595T427 644T370 672T304 681Q252 681 217 667T160 629T131 578T128 522Q134 487 156 466T210 432T280 410T359 392T436 369T503 334T549 278T567 191Q567 91 498 36T304 -19Q248 -19 200 -5T117 39T63 112T43 215H109ZM223 776H158L272 915H339L452 776H387L305 878L223 776Z"  />
<glyph unicode="&#x15D;" horiz-adv-x="500" d="M107 162Q121 95 157 68T262 40Q295 40 319 48T358 69T382 100T390 136Q390 174 366 192T304 221T224 239T144 262T83 305T58 384Q58 449 105 490T240 532Q324 532 376 495T440 369H379Q371 429 334 453T239 478Q182 478 152 454T122 389Q122 354 146 336T208 306T288 285T368 260T429 215T454 137Q454 100 438 72T394 24T328 -4T243 -14Q197 -14 162 -1T101 37T62 93T46 162H107ZM160 574H95L209 713H276L389 574H324L242 676L160 574Z"  />
<glyph unicode="&#x15E;" horiz-adv-x="611" d="M226 -158Q242 -163 257 -168T290 -173Q301 -173 312 -171T334 -163T350 -148T356 -126Q356 -106 341 -97T306 -87Q295 -87 284 -89T262 -95L247 -82L293 -19Q239 -18 193 -3T114 42T62 115T43 215H109Q113 167 130 134T175 79T239 49T316 39Q364 39 399 51T456 83T488 131T499 188Q499 230 480 256T431 298T361 325T280 344T199 367T129 402T79 458T60 546Q60 583 75 618T121 680T198 723T304 739Q365 739 410 722T486 676T531 607T546 524H481Q481 565 467 595T427 644T370 672T304 681Q252 681 217 667T160 629T131 578T128 522Q134 487 156 466T210 432T280 410T359 392T436 369T503 334T549 278T567 191Q567 97 505 43T331 -18L299 -59Q308 -57 317 -55T335 -53Q368 -53 388 -69T412 -105Q417 -132 410 -151T386 -183T348 -201T302 -207Q279 -207 256 -202T211 -188L226 -158Z"  />
<glyph unicode="&#x15F;" horiz-adv-x="500" d="M165 -158Q181 -163 196 -168T229 -173Q240 -173 251 -171T273 -163T289 -148T295 -126Q295 -106 280 -97T245 -87Q234 -87 223 -89T201 -95L186 -82L236 -14Q192 -13 158 1T99 39T62 94T46 162H107Q121 95 157 68T262 40Q295 40 319 48T358 69T382 100T390 136Q390 174 366 192T304 221T224 239T144 262T83 305T58 384Q58 449 105 490T240 532Q324 532 376 495T440 369H379Q371 429 334 453T239 478Q182 478 152 454T122 389Q122 354 146 336T208 306T288 285T368 260T429 215T454 137Q454 103 441 77T404 32T347 2T275 -12L238 -59Q247 -57 256 -55T274 -53Q307 -53 327 -69T351 -105Q356 -132 349 -151T325 -183T287 -201T241 -207Q218 -207 195 -202T150 -188L165 -158Z"  />
<glyph unicode="&#x160;" horiz-adv-x="611" d="M109 215Q113 167 130 134T175 79T239 49T316 39Q364 39 399 51T456 83T488 131T499 188Q499 230 480 256T431 298T361 325T280 344T199 367T129 402T79 458T60 546Q60 583 75 618T121 680T198 723T304 739Q365 739 410 722T486 676T531 607T546 524H481Q481 565 467 595T427 644T370 672T304 681Q252 681 217 667T160 629T131 578T128 522Q134 487 156 466T210 432T280 410T359 392T436 369T503 334T549 278T567 191Q567 91 498 36T304 -19Q248 -19 200 -5T117 39T63 112T43 215H109ZM392 915H457L344 776H277L163 915H228L310 813L392 915Z"  />
<glyph unicode="&#x161;" horiz-adv-x="500" d="M107 162Q121 95 157 68T262 40Q295 40 319 48T358 69T382 100T390 136Q390 174 366 192T304 221T224 239T144 262T83 305T58 384Q58 449 105 490T240 532Q324 532 376 495T440 369H379Q371 429 334 453T239 478Q182 478 152 454T122 389Q122 354 146 336T208 306T288 285T368 260T429 215T454 137Q454 100 438 72T394 24T328 -4T243 -14Q197 -14 162 -1T101 37T62 93T46 162H107ZM337 713H402L289 574H222L108 713H173L255 611L337 713Z"  />
<glyph unicode="&#x162;" horiz-adv-x="556" d="M16 720H540V662H312V0H244V662H16V720ZM243 -98V-40H311V-94Q311 -129 296 -154T243 -179V-152Q279 -152 279 -98H243Z"  />
<glyph unicode="&#x163;" horiz-adv-x="278" d="M254 -2Q243 -4 225 -9T185 -14Q140 -14 117 8T93 89V468H20V518H93V662H153V518H250V468H153V113Q153 94 154 80T160 57T175 44T205 40Q217 40 229 42T254 47V-2ZM118 -98V-40H186V-94Q186 -129 171 -154T118 -179V-152Q154 -152 154 -98H118Z"  />
<glyph unicode="&#x164;" horiz-adv-x="556" d="M16 720H540V662H312V0H244V662H16V720ZM360 915H425L312 776H245L131 915H196L278 813L360 915Z"  />
<glyph unicode="&#x165;" horiz-adv-x="278" d="M254 -2Q243 -4 225 -9T185 -14Q140 -14 117 8T93 89V468H20V518H93V662H153V518H250V468H153V113Q153 94 154 80T160 57T175 44T205 40Q217 40 229 42T254 47V-2ZM214 662V720H282V666Q282 631 267 606T214 581V608Q250 608 250 662H214Z"  />
<glyph unicode="&#x166;" horiz-adv-x="556" d="M133 480H244V662H16V720H540V662H312V480H429V422H312V0H244V422H133V480Z"  />
<glyph unicode="&#x167;" horiz-adv-x="278" d="M24 377H93V468H20V518H93V662H153V518H250V468H153V377H245V332H153V113Q153 94 154 80T160 57T175 44T205 40Q217 40 229 42T254 47V-2Q243 -4 225 -9T185 -14Q140 -14 117 8T93 89V332H24V377Z"  />
<glyph unicode="&#x168;" horiz-adv-x="722" d="M82 720H150V291Q150 157 200 98T361 39Q419 39 459 54T525 101T561 180T572 291V720H640V271Q640 130 571 56T361 -19Q220 -19 151 57T82 271V720ZM204 788Q206 806 211 820T224 847Q239 868 262 878T312 883Q326 880 342 873T374 859T406 846T435 840Q457 840 466 856T479 890H517Q516 880 514 871T509 852Q498 828 481 810T435 792Q414 792 396 799T359 814T324 830T289 837Q266 837 256 822T240 788H204Z"  />
<glyph unicode="&#x169;" horiz-adv-x="556" d="M423 518H483V0H423V72Q411 58 396 43T362 16T316 -5T256 -14Q204 -14 169 0T113 41T82 101T72 177V518H132V178Q132 111 163 76T265 40Q302 40 331 54T381 95T412 157T423 236V518ZM123 586Q125 604 130 618T143 645Q158 666 181 676T231 681Q245 678 261 671T293 657T325 644T354 638Q376 638 385 654T398 688H436Q435 678 433 669T428 650Q417 626 400 608T354 590Q333 590 315 597T278 612T243 628T208 635Q185 635 175 620T159 586H123Z"  />
<glyph unicode="&#x16A;" horiz-adv-x="722" d="M82 720H150V291Q150 157 200 98T361 39Q419 39 459 54T525 101T561 180T572 291V720H640V271Q640 130 571 56T361 -19Q220 -19 151 57T82 271V720ZM211 859H507V814H211V859Z"  />
<glyph unicode="&#x16B;" horiz-adv-x="556" d="M423 518H483V0H423V72Q411 58 396 43T362 16T316 -5T256 -14Q204 -14 169 0T113 41T82 101T72 177V518H132V178Q132 111 163 76T265 40Q302 40 331 54T381 95T412 157T423 236V518ZM130 657H426V612H130V657Z"  />
<glyph unicode="&#x16C;" horiz-adv-x="722" d="M82 720H150V291Q150 157 200 98T361 39Q419 39 459 54T525 101T561 180T572 291V720H640V271Q640 130 571 56T361 -19Q220 -19 151 57T82 271V720ZM255 908Q263 866 290 847T360 827Q402 827 429 846T467 908H504Q497 845 457 814T355 782Q295 782 258 815T216 908H255Z"  />
<glyph unicode="&#x16D;" horiz-adv-x="556" d="M423 518H483V0H423V72Q411 58 396 43T362 16T316 -5T256 -14Q204 -14 169 0T113 41T82 101T72 177V518H132V178Q132 111 163 76T265 40Q302 40 331 54T381 95T412 157T423 236V518ZM173 706Q181 664 208 645T278 625Q320 625 347 644T385 706H422Q415 643 375 612T273 580Q213 580 176 613T134 706H173Z"  />
<glyph unicode="&#x16E;" horiz-adv-x="722" d="M82 720H150V291Q150 157 200 98T361 39Q419 39 459 54T525 101T561 180T572 291V720H640V271Q640 130 571 56T361 -19Q220 -19 151 57T82 271V720ZM361 780Q341 780 323 788T291 809T269 841T261 879Q261 899 269 917T291 949T323 971T361 979Q381 979 399 971T430 949T452 917T460 879Q460 859 452 841T431 810T399 788T361 780ZM361 813Q387 813 407 833T427 879Q427 905 408 925T361 946Q334 946 314 926T294 879Q294 852 314 833T361 813Z"  />
<glyph unicode="&#x16F;" horiz-adv-x="556" d="M423 518H483V0H423V72Q411 58 396 43T362 16T316 -5T256 -14Q204 -14 169 0T113 41T82 101T72 177V518H132V178Q132 111 163 76T265 40Q302 40 331 54T381 95T412 157T423 236V518ZM277 578Q257 578 239 586T207 607T185 639T177 677Q177 697 185 715T207 747T239 769T277 777Q297 777 315 769T346 747T368 715T376 677Q376 657 368 639T347 608T315 586T277 578ZM277 611Q303 611 323 631T343 677Q343 703 324 723T277 744Q250 744 230 724T210 677Q210 650 230 631T277 611Z"  />
<glyph unicode="&#x170;" horiz-adv-x="722" d="M82 720H150V291Q150 157 200 98T361 39Q419 39 459 54T525 101T561 180T572 291V720H640V271Q640 130 571 56T361 -19Q220 -19 151 57T82 271V720ZM228 776L339 915H416L279 776H228ZM390 776L501 915H578L441 776H390Z"  />
<glyph unicode="&#x171;" horiz-adv-x="556" d="M423 518H483V0H423V72Q411 58 396 43T362 16T316 -5T256 -14Q204 -14 169 0T113 41T82 101T72 177V518H132V178Q132 111 163 76T265 40Q302 40 331 54T381 95T412 157T423 236V518ZM144 574L255 713H332L195 574H144ZM306 574L417 713H494L357 574H306Z"  />
<glyph unicode="&#x172;" horiz-adv-x="722" d="M82 720H150V291Q150 157 200 98T361 39Q419 39 459 54T525 101T561 180T572 291V720H640V271Q640 137 578 64T389 -18Q370 -31 356 -48T341 -87Q341 -116 361 -130T408 -144Q429 -144 450 -135V-179Q424 -188 398 -188Q378 -188 360 -183T328 -166T305 -139T296 -101Q296 -75 308 -55T339 -18Q209 -12 146 63T82 271V720Z"  />
<glyph unicode="&#x173;" horiz-adv-x="556" d="M423 518H483V0H476Q464 -6 450 -14T424 -34T404 -59T396 -87Q396 -116 416 -130T463 -144Q484 -144 505 -135V-179Q479 -188 453 -188Q433 -188 415 -183T383 -166T360 -139T351 -101Q351 -66 372 -41T423 0V72Q411 58 396 43T362 16T316 -5T256 -14Q204 -14 169 0T113 41T82 101T72 177V518H132V178Q132 111 163 76T265 40Q302 40 331 54T381 95T412 157T423 236V518Z"  />
<glyph unicode="&#x174;" horiz-adv-x="889" d="M646 96H648L805 720H875L686 0H611L444 636H442L275 0H200L14 720H82L237 96H239L406 720H482L646 96ZM361 776H296L410 915H477L590 776H525L443 878L361 776Z"  />
<glyph unicode="&#x175;" horiz-adv-x="722" d="M510 80L646 518H707L539 0H475L362 435H360L245 0H173L15 518H75L209 76L329 518H396L510 80ZM279 574H214L328 713H395L508 574H443L361 676L279 574Z"  />
<glyph unicode="&#x176;" horiz-adv-x="611" d="M302 373L519 720H598L337 314V0H269V309L12 720H90L302 373ZM222 776H157L271 915H338L451 776H386L304 878L222 776Z"  />
<glyph unicode="&#x177;" horiz-adv-x="500" d="M68 -141Q80 -143 92 -145T118 -147Q143 -147 159 -131T185 -93T203 -46T219 -4L18 518H85L251 73L417 518H482L289 7Q271 -42 255 -81T220 -147T179 -189T125 -204Q109 -204 95 -202T68 -197V-141ZM166 574H101L215 713H282L395 574H330L248 676L166 574Z"  />
<glyph unicode="&#x178;" horiz-adv-x="611" d="M302 373L519 720H598L337 314V0H269V309L12 720H90L302 373ZM358 888H423V786H358V888ZM199 888H264V786H199V888Z"  />
<glyph unicode="&#x179;" horiz-adv-x="611" d="M31 0V57L492 662H70V720H576V663L115 58H579V0H31ZM242 776L353 915H430L293 776H242Z"  />
<glyph unicode="&#x17A;" horiz-adv-x="500" d="M33 0V53L377 468H56V518H454V465L110 50H467V0H33ZM195 574L306 713H383L246 574H195Z"  />
<glyph unicode="&#x17B;" horiz-adv-x="611" d="M31 0V57L492 662H70V720H576V663L115 58H579V0H31ZM279 888H344V786H279V888Z"  />
<glyph unicode="&#x17C;" horiz-adv-x="500" d="M33 0V53L377 468H56V518H454V465L110 50H467V0H33ZM227 686H292V584H227V686Z"  />
<glyph unicode="&#x17D;" horiz-adv-x="611" d="M31 0V57L492 662H70V720H576V663L115 58H579V0H31ZM392 915H457L344 776H277L163 915H228L310 813L392 915Z"  />
<glyph unicode="&#x17E;" horiz-adv-x="500" d="M33 0V53L377 468H56V518H454V465L110 50H467V0H33ZM337 713H402L289 574H222L108 713H173L255 611L337 713Z"  />
<glyph unicode="&#x192;" horiz-adv-x="556" d="M519 665Q503 674 486 678Q478 680 467 680T442 677Q413 672 397 648T370 591T354 520T338 448H453V400H330L266 64Q255 11 241 -36T205 -118T149 -175T68 -196Q54 -196 40 -193T13 -185L32 -128Q47 -137 57 -139T84 -141Q114 -141 135 -116T173 -41T205 78T236 238L265 400H152V448H273Q283 490 294 539T325 632T379 705T469 734Q489 734 505 729T539 714L519 665Z"  />
<glyph unicode="&#x218;" horiz-adv-x="611" d="M109 215Q113 167 130 134T175 79T239 49T316 39Q364 39 399 51T456 83T488 131T499 188Q499 230 480 256T431 298T361 325T280 344T199 367T129 402T79 458T60 546Q60 583 75 618T121 680T198 723T304 739Q365 739 410 722T486 676T531 607T546 524H481Q481 565 467 595T427 644T370 672T304 681Q252 681 217 667T160 629T131 578T128 522Q134 487 156 466T210 432T280 410T359 392T436 369T503 334T549 278T567 191Q567 91 498 36T304 -19Q248 -19 200 -5T117 39T63 112T43 215H109ZM274 -98V-40H342V-94Q342 -129 327 -154T274 -179V-152Q310 -152 310 -98H274Z"  />
<glyph unicode="&#x219;" horiz-adv-x="500" d="M107 162Q121 95 157 68T262 40Q295 40 319 48T358 69T382 100T390 136Q390 174 366 192T304 221T224 239T144 262T83 305T58 384Q58 449 105 490T240 532Q324 532 376 495T440 369H379Q371 429 334 453T239 478Q182 478 152 454T122 389Q122 354 146 336T208 306T288 285T368 260T429 215T454 137Q454 100 438 72T394 24T328 -4T243 -14Q197 -14 162 -1T101 37T62 93T46 162H107ZM222 -98V-40H290V-94Q290 -129 275 -154T222 -179V-152Q258 -152 258 -98H222Z"  />
<glyph unicode="&#x21A;" horiz-adv-x="556" d="M16 720H540V662H312V0H244V662H16V720ZM243 -98V-40H311V-94Q311 -129 296 -154T243 -179V-152Q279 -152 279 -98H243Z"  />
<glyph unicode="&#x21B;" horiz-adv-x="278" d="M254 -2Q243 -4 225 -9T185 -14Q140 -14 117 8T93 89V468H20V518H93V662H153V518H250V468H153V113Q153 94 154 80T160 57T175 44T205 40Q217 40 229 42T254 47V-2ZM118 -98V-40H186V-94Q186 -129 171 -154T118 -179V-152Q154 -152 154 -98H118Z"  />
<glyph unicode="&#x237;" horiz-adv-x="222" d="M148 518V-69Q148 -102 145 -127T132 -169T101 -195T44 -204Q22 -204 5 -200V-147Q31 -150 47 -148T72 -136T84 -112T88 -77V518H148Z"  />
<glyph unicode="&#x2C6;" horiz-adv-x="333" d="M89 574H24L138 713H205L318 574H253L171 676L89 574Z"  />
<glyph unicode="&#x2C7;" horiz-adv-x="333" d="M253 713H318L205 574H138L24 713H89L171 611L253 713Z"  />
<glyph unicode="&#x2C9;" horiz-adv-x="333" d="M23 657H319V612H23V657Z"  />
<glyph unicode="&#x2D8;" horiz-adv-x="333" d="M67 706Q75 664 102 645T172 625Q214 625 241 644T279 706H316Q309 643 269 612T167 580Q107 580 70 613T28 706H67Z"  />
<glyph unicode="&#x2D9;" horiz-adv-x="333" d="M134 686H199V584H134V686Z"  />
<glyph unicode="&#x2DA;" horiz-adv-x="333" d="M167 578Q147 578 129 586T97 607T75 639T67 677Q67 697 75 715T97 747T129 769T167 777Q187 777 205 769T236 747T258 715T266 677Q266 657 258 639T237 608T205 586T167 578ZM167 611Q193 611 213 631T233 677Q233 703 214 723T167 744Q140 744 120 724T100 677Q100 650 120 631T167 611Z"  />
<glyph unicode="&#x2DB;" horiz-adv-x="333" d="M199 2V0Q187 -6 173 -14T147 -34T127 -59T119 -87Q119 -116 139 -130T186 -144Q207 -144 228 -135V-179Q202 -188 176 -188Q156 -188 138 -183T106 -166T83 -139T74 -101Q74 -66 97 -40T149 2H199Z"  />
<glyph unicode="&#x2DC;" horiz-adv-x="333" d="M16 586Q18 604 23 618T36 645Q51 666 74 676T124 681Q138 678 154 671T186 657T218 644T247 638Q269 638 278 654T291 688H329Q328 678 326 669T321 650Q310 626 293 608T247 590Q226 590 208 597T171 612T136 628T101 635Q78 635 68 620T52 586H16Z"  />
<glyph unicode="&#x2DD;" horiz-adv-x="333" d="M109 574L220 713H297L160 574H109ZM271 574L382 713H459L322 574H271Z"  />
<glyph unicode="&#x394;" horiz-adv-x="592" d="M27 46Q84 205 139 362T252 680H341Q392 538 441 398T541 116Q543 109 546 98T553 76T560 53T566 35V0H27V46ZM488 61Q475 98 457 149T418 256T377 371T337 483Q330 504 323 524T310 561T301 591T296 609H292Q291 604 287 592T278 562T265 524T251 484Q233 431 212 373T171 258T132 150T101 61H488Z"  />
<glyph unicode="&#x3A9;" horiz-adv-x="618" d="M454 64H584V0H359V52Q388 76 412 109T454 181T481 265T491 356Q491 401 481 448T448 536T391 601T310 627Q263 627 229 602T171 538T137 451T126 357Q126 314 136 269T164 183T206 108T258 52V0H33V64H162V68Q139 90 118 121T80 190T53 272T43 365Q43 439 64 499T121 603T207 669T314 693Q372 693 419 670T501 603T555 501T574 371Q574 319 564 273T537 189T499 121T454 68V64Z"  />
<glyph unicode="&#x3BC;" horiz-adv-x="556" d="M423 518H483V0H423V72Q411 58 396 43T362 16T316 -5T256 -14Q214 -14 183 -4T132 18V-204H72V518H132V178Q132 111 163 76T265 40Q302 40 331 54T381 95T412 157T423 236V518Z"  />
<glyph unicode="&#x3C0;" horiz-adv-x="530" d="M498 13Q481 5 465 0T428 -6Q403 -6 388 2T363 25T349 58T343 98Q342 112 342 125T342 152V443H178V0H102V443H32V505H494V443H418V116Q418 92 423 74T456 55Q467 55 477 58T498 67V13Z"  />
<glyph unicode="&#x2013;" horiz-adv-x="500" d="M500 238H0V282H500V238Z"  />
<glyph unicode="&#x2014;" horiz-adv-x="1000" d="M0 238V282H1000V238H0Z"  />
<glyph unicode="&#x2018;" horiz-adv-x="222" d="M69 613Q69 657 89 683T142 720V683Q130 675 119 661T108 617V583H142V495H69V613Z"  />
<glyph unicode="&#x2019;" horiz-adv-x="222" d="M153 602Q153 558 133 532T80 495V532Q92 540 103 554T114 598V632H80V720H153V602Z"  />
<glyph unicode="&#x201A;" horiz-adv-x="222" d="M153 -30Q153 -74 133 -100T80 -137V-100Q92 -92 103 -78T114 -34V0H80V88H153V-30Z"  />
<glyph unicode="&#x201C;" horiz-adv-x="389" d="M237 613Q237 657 257 683T310 720V683Q298 675 287 661T276 617V583H310V495H237V613ZM86 613Q86 657 106 683T159 720V683Q147 675 136 661T125 617V583H159V495H86V613Z"  />
<glyph unicode="&#x201D;" horiz-adv-x="389" d="M303 602Q303 558 283 532T230 495V532Q242 540 253 554T264 598V632H230V720H303V602ZM152 602Q152 558 132 532T79 495V532Q91 540 102 554T113 598V632H79V720H152V602Z"  />
<glyph unicode="&#x201E;" horiz-adv-x="389" d="M303 -30Q303 -74 283 -100T230 -137V-100Q242 -92 253 -78T264 -34V0H230V88H303V-30ZM152 -30Q152 -74 132 -100T79 -137V-100Q91 -92 102 -78T113 -34V0H79V88H152V-30Z"  />
<glyph unicode="&#x2020;" horiz-adv-x="556" d="M248 436H37V490H248V720H308V490H519V436H308V-166H248V436Z"  />
<glyph unicode="&#x2021;" horiz-adv-x="556" d="M248 443H37V497H248V720H308V497H519V443H308V109H519V55H308V-166H248V55H37V109H248V443Z"  />
<glyph unicode="&#x2022;" horiz-adv-x="500" d="M430 359Q430 322 416 290T377 233T319 194T249 180Q212 180 180 194T123 232T84 289T70 359Q70 396 84 429T122 487T179 526T249 540Q286 540 319 526T377 487T416 429T430 359Z"  />
<glyph unicode="&#x2026;" horiz-adv-x="1000" d="M131 0V88H204V0H131ZM797 0V88H870V0H797ZM464 0V88H537V0H464Z"  />
<glyph unicode="&#x2030;" horiz-adv-x="1000" d="M473 299Q503 299 530 287T578 255T611 207T623 149Q623 118 611 91T579 44T531 12T473 0Q442 0 415 12T368 44T336 91T324 149Q324 179 336 206T368 254T415 287T473 299ZM163 698Q193 698 220 686T268 654T301 607T313 549Q313 518 301 491T269 443T221 411T163 399Q132 399 105 411T58 443T26 491T14 549Q14 579 26 606T58 654T105 686T163 698ZM836 299Q867 299 894 287T941 255T973 207T985 149Q985 118 973 91T941 44T894 12T836 0Q805 0 778 11T731 43T698 91T686 149Q686 179 698 206T730 254T778 287T836 299ZM86 -14L493 705H546L139 -14H86ZM163 641Q144 641 128 634T99 614T79 584T71 549Q71 531 78 514T98 484T128 464T163 456Q181 456 198 463T228 484T248 514T256 549Q256 567 249 584T228 613T198 633T163 641ZM473 57Q491 57 508 64T537 84T558 114T566 149Q566 167 559 184T538 214T509 234T473 242Q454 242 438 235T409 214T389 184T381 149Q381 131 388 114T409 85T438 65T473 57ZM836 57Q854 57 870 64T900 85T920 114T928 149Q928 167 921 184T901 214T871 234T836 242Q817 242 800 235T771 214T751 185T743 149Q743 131 750 114T771 85T801 65T836 57Z"  />
<glyph unicode="&#x2039;" horiz-adv-x="389" d="M121 291L267 404V341L163 259L267 179V117L121 228V291Z"  />
<glyph unicode="&#x203A;" horiz-adv-x="389" d="M268 230L122 117V180L226 262L122 342V404L268 293V230Z"  />
<glyph unicode="&#x2044;" horiz-adv-x="167" d="M-164 -14L280 705H331L-113 -14H-164Z"  />
<glyph unicode="&#x20AC;" horiz-adv-x="556" d="M39 290H100Q99 304 99 317T98 345Q98 356 98 366T99 388H21L40 442H104Q113 517 136 567T191 648T261 692T341 705Q388 705 421 694T477 665T513 628T535 589L507 513Q498 550 482 576T443 619T395 643T341 651Q302 651 272 636T221 592T187 526T168 442H479L459 388H163Q163 377 163 367T162 346Q162 332 162 318T164 290H423L403 236H170Q177 193 190 157T224 95T274 55T341 40Q392 40 434 69T508 149V65Q480 30 437 8T341 -14Q301 -14 263 -2T194 40T139 117T105 236H19L39 290Z"  />
<glyph unicode="&#x2113;" horiz-adv-x="474" d="M187 301Q243 363 276 429T309 567Q309 617 293 637T253 657Q227 657 207 623T187 510V301ZM381 120Q391 109 401 100T422 80Q395 38 355 15T260 -9Q186 -9 150 30T109 154Q109 156 109 159T108 165Q94 154 83 146T57 128Q46 150 31 174Q51 188 70 203T107 234V454Q107 528 117 578T146 660T193 704T257 718Q310 718 344 679T379 569Q379 474 328 389T187 219V199Q187 127 204 98T251 63Q260 61 270 61T289 64Q321 68 342 84T381 120Z"  />
<glyph unicode="&#x2122;" horiz-adv-x="940" d="M859 299H807V676H805L660 299H626L481 676H479V299H427V720H523L643 409H645L763 720H859V299ZM349 680H215V299H163V680H29V720H349V680Z"  />
<glyph unicode="&#x2126;" horiz-adv-x="618" d="M454 64H584V0H359V52Q388 76 412 109T454 181T481 265T491 356Q491 401 481 448T448 536T391 601T310 627Q263 627 229 602T171 538T137 451T126 357Q126 314 136 269T164 183T206 108T258 52V0H33V64H162V68Q139 90 118 121T80 190T53 272T43 365Q43 439 64 499T121 603T207 669T314 693Q372 693 419 670T501 603T555 501T574 371Q574 319 564 273T537 189T499 121T454 68V64Z"  />
<glyph unicode="&#x212E;" horiz-adv-x="742" d="M187 340V110Q262 35 370 35Q449 35 507 71T614 187Q625 180 636 174T658 161Q629 116 599 84T535 30T461 0T370 -10Q295 -10 235 17T133 92T67 203T44 340Q44 413 67 477T132 588T235 663T370 690Q443 690 503 664T606 592T673 481T698 340H187ZM555 386V569Q476 645 369 645Q261 645 187 569V386H555Z"  />
<glyph unicode="&#x2202;" horiz-adv-x="485" d="M82 657Q76 669 71 681T59 706Q82 723 119 739T212 755Q258 755 301 730T377 656T429 537T449 377Q449 276 429 203T374 83T297 13T208 -10Q166 -10 134 5T79 48T46 114T34 197Q34 249 50 293T93 371T157 422T236 441Q291 441 326 417T378 364H379V393Q379 462 365 518T326 613T271 673T207 694Q162 694 132 683T82 657ZM215 50Q246 50 273 69T320 122T354 199T371 292Q357 330 325 356T247 382Q218 382 193 368T148 330T118 272T107 199Q107 122 137 86T215 50Z"  />
<glyph unicode="&#x2206;" horiz-adv-x="592" d="M27 46Q84 205 139 362T252 680H341Q392 538 441 398T541 116Q543 109 546 98T553 76T560 53T566 35V0H27V46ZM488 61Q475 98 457 149T418 256T377 371T337 483Q330 504 323 524T310 561T301 591T296 609H292Q291 604 287 592T278 562T265 524T251 484Q233 431 212 373T171 258T132 150T101 61H488Z"  />
<glyph unicode="&#x220F;" horiz-adv-x="628" d="M574 -130H502V685H126V-130H54V748H574V-130Z"  />
<glyph unicode="&#x2211;" horiz-adv-x="564" d="M9 -130V-84Q67 14 124 110T240 305Q186 404 132 501T23 697V748H537V686H117V683Q133 651 160 602T217 499T275 395T322 309Q267 215 213 123T104 -64V-68H567V-130H9Z"  />
<glyph unicode="&#x2212;" horiz-adv-x="660" d="M80 280H580V220H80V280Z"  />
<glyph unicode="&#x2215;" horiz-adv-x="167" d="M-164 -14L280 705H331L-113 -14H-164Z"  />
<glyph unicode="&#x2219;" horiz-adv-x="278" d="M139 398Q159 398 173 384T187 350Q187 330 173 316T139 301Q119 301 105 315T90 350Q90 370 105 384T139 398Z"  />
<glyph unicode="&#x221A;" horiz-adv-x="512" d="M511 800Q458 576 406 355T301 -90H242Q205 13 169 113T95 317Q77 310 60 304T24 290Q20 301 16 312T8 335Q40 348 73 360T138 386Q165 307 193 229T249 72Q255 52 260 31T267 -4H268Q270 9 273 29T281 70Q285 86 293 121T312 205T336 311T363 428T390 546T415 655T435 743T449 800H511H511Z"  />
<glyph unicode="&#x221E;" horiz-adv-x="733" d="M543 118Q515 118 491 128T445 153T404 187T366 224Q347 205 327 186T285 152T237 128T181 118Q150 118 124 129T80 159T51 205T40 264Q40 294 51 320T82 367T129 398T189 410Q217 410 241 400T288 375T329 342T367 305Q386 324 406 342T449 376T497 400T552 410Q583 410 609 400T654 370T683 323T694 264Q694 234 683 208T651 161T603 130T543 118ZM545 175Q564 175 580 182T608 201T627 230T634 264Q634 303 610 328T548 354Q526 354 506 346T468 324T434 295T404 265Q419 251 434 236T467 207T503 184T545 175ZM187 175Q208 175 228 183T265 205T299 233T329 264Q314 278 299 293T267 322T230 345T189 354Q170 354 154 347T125 327T106 299T99 264Q99 226 124 201T187 175Z"  />
<glyph unicode="&#x222B;" horiz-adv-x="317" d="M292 696Q277 701 264 701Q245 701 231 693T208 663T194 608T189 521V493Q189 407 193 327T198 151Q198 128 198 106T197 64Q195 4 184 -36T154 -101T113 -135T63 -145Q49 -145 35 -143T13 -136Q16 -122 19 -109T24 -82Q41 -87 58 -87Q70 -87 83 -82T107 -59T125 -6T133 90V118Q133 220 128 315T123 512Q123 640 156 698T261 757Q273 757 284 755T304 750L292 696Z"  />
<glyph unicode="&#x2248;" horiz-adv-x="660" d="M586 370Q571 345 550 328T504 302T455 292T408 296L258 339Q222 349 198 345T157 329T131 305T116 286L73 313Q113 366 163 383T268 385L419 343Q434 338 453 339T498 352Q510 357 525 368T549 394L586 370ZM586 219Q571 194 550 177T504 151T455 141T408 145L258 188Q222 198 198 194T157 178T131 154T116 135L73 162Q113 215 163 232T268 234L419 192Q434 187 453 188T498 201Q510 206 525 217T549 243L586 219Z"  />
<glyph unicode="&#x2260;" horiz-adv-x="660" d="M503 521L427 385H592V330H397L319 191H592V136H289L199 -25L150 3L224 136H67V191H255L332 330H67V385H363L454 549L503 521Z"  />
<glyph unicode="&#x2264;" horiz-adv-x="660" d="M81 55H578V0H81V55ZM81 409L578 639V577L145 378L578 179V117L81 347V409Z"  />
<glyph unicode="&#x2265;" horiz-adv-x="549" d="M523 0H26V55H523V0ZM523 347L26 117V179L459 378L26 577V639L523 409V347Z"  />
<glyph unicode="&#x25CA;" horiz-adv-x="494" d="M212 0L18 377L212 745H272L466 377L272 0H212ZM242 691L78 377L242 54L406 377L242 691Z"  />
<glyph unicode="&#xE002;" horiz-adv-x="333" d="M109 776L220 915H297L160 776H109Z"  />
<glyph unicode="&#xE004;" horiz-adv-x="333" d="M89 776H24L138 915H205L318 776H253L171 878L89 776Z"  />
<glyph unicode="&#xE006;" horiz-adv-x="333" d="M253 915H318L205 776H138L24 915H89L171 813L253 915Z"  />
<glyph unicode="&#xE008;" horiz-adv-x="222" d="M77 662V720H145V666Q145 631 130 606T77 581V608Q113 608 113 662H77Z"  />
<glyph unicode="&#xE009;" horiz-adv-x="333" d="M16 788Q18 806 23 820T36 847Q51 868 74 878T124 883Q138 880 154 873T186 859T218 846T247 840Q269 840 278 856T291 890H329Q328 880 326 871T321 852Q310 828 293 810T247 792Q226 792 208 799T171 814T136 830T101 837Q78 837 68 822T52 788H16Z"  />
<glyph unicode="&#xE00D;" horiz-adv-x="333" d="M23 859H319V814H23V859Z"  />
<glyph unicode="&#xE00F;" horiz-adv-x="333" d="M67 908Q75 866 102 847T172 827Q214 827 241 846T279 908H316Q309 845 269 814T167 782Q107 782 70 815T28 908H67Z"  />
<glyph unicode="&#xE011;" horiz-adv-x="333" d="M167 780Q147 780 129 788T97 809T75 841T67 879Q67 899 75 917T97 949T129 971T167 979Q187 979 205 971T236 949T258 917T266 879Q266 859 258 841T237 810T205 788T167 780ZM167 813Q193 813 213 833T233 879Q233 905 214 925T167 946Q140 946 120 926T100 879Q100 852 120 833T167 813Z"  />
<glyph unicode="&#xE013;" horiz-adv-x="333" d="M109 776L220 915H297L160 776H109ZM271 776L382 915H459L322 776H271Z"  />
<glyph unicode="&#xE015;" horiz-adv-x="333" d="M134 888H199V786H134V888Z"  />
<glyph unicode="&#xE017;" horiz-adv-x="222" d="M77 -98V-40H145V-94Q145 -129 130 -154T77 -179V-152Q113 -152 113 -98H77Z"  />
<glyph unicode="&#xE01A;" horiz-adv-x="222" d="M145 632V574H77V628Q77 663 92 688T145 713V686Q109 686 109 632H145Z"  />
<glyph unicode="&#xFB01;" horiz-adv-x="493" d="M352 0V518H412V0H352ZM415 631H349V720H415V631ZM20 468V518H97V600Q97 662 122 698T207 734Q221 734 233 733T257 730V675Q237 680 221 680Q198 680 185 672T166 649T159 618T157 582V518H257V468H157V0H97V468H20Z"  />
<glyph unicode="&#xFB02;" horiz-adv-x="493" d="M352 0V720H412V0H352ZM20 468V518H97V600Q97 662 122 698T207 734Q221 734 233 733T257 730V675Q237 680 221 680Q198 680 185 672T166 649T159 618T157 582V518H257V468H157V0H97V468H20Z"  />

</font>
</defs>
</svg>
